<?xml version="1.0" standalone="no"?>
<!DOCTYPE svg PUBLIC "-//W3C//DTD SVG 1.1//EN" "http://www.w3.org/Graphics/SVG/1.1/DTD/svg11.dtd" >
<svg xmlns="http://www.w3.org/2000/svg" xmlns:xlink="http://www.w3.org/1999/xlink" version="1.1">
<metadata>
Created by FontForge 20141024 at Sat Sep 26 08:46:43 2015
 By Jimmy Warting
Copyright (c) 2006, Modular Infotech, Pune, INDIA. - Licenced to Microsoft
</metadata>
<defs>
<font id="Aparajita" horiz-adv-x="824" >
  <font-face 
    font-family="Aparajita"
    font-weight="400"
    font-stretch="normal"
    units-per-em="2048"
    panose-1="2 11 6 4 2 2 2 2 2 4"
    ascent="1638"
    descent="-410"
    x-height="737"
    cap-height="1092"
    bbox="-1128 -870 2238 1550"
    underline-thickness="122"
    underline-position="-333"
    unicode-range="U+0020-25CC"
  />
<missing-glyph horiz-adv-x="800" 
d="M100 700h600v-700h-600v700zM650 50v600h-500v-600h500z" />
    <glyph glyph-name=".notdef" horiz-adv-x="800" 
d="M100 700h600v-700h-600v700zM650 50v600h-500v-600h500z" />
    <glyph glyph-name=".null" horiz-adv-x="0" 
 />
    <glyph glyph-name="nonmarkingreturn" horiz-adv-x="0" 
 />
    <glyph glyph-name="space" unicode=" " horiz-adv-x="412" 
 />
    <glyph glyph-name="exclam" unicode="!" horiz-adv-x="549" 
d="M290 289h-31l-71 652q-4 43 -4 64q0 50 26.5 81t64.5 31t64 -31t26 -91q0 -19 -3 -54zM274 155q37 0 63 -26t26 -62q0 -37 -26 -63.5t-63 -26.5t-63.5 26.5t-26.5 63.5q0 36 26.5 62t63.5 26z" />
    <glyph glyph-name="quotedbl" unicode="&#x22;" horiz-adv-x="673" 
d="M464 646l-44 235l-17 98q-2 20 -2 40q0 51 22.5 74.5t59.5 23.5q35 0 58 -23.5t23 -63.5q0 -68 -16 -148l-46 -236h-38zM169 646l-44 239q-18 98 -18 133q0 52 21.5 75.5t57.5 23.5q35 0 58.5 -24t23.5 -63q0 -32 -21 -146l-43 -238h-35z" />
    <glyph glyph-name="numbersign" unicode="#" 
d="M93 -23l74 367h-137v66h150l56 276h-206v64h221l73 367h67l-73 -367h271l78 367h67l-76 -367h137v-64h-149l-57 -276h206v-66h-219l-75 -367h-65l73 367h-273l-77 -367h-66zM248 410h273l58 276h-275z" />
    <glyph glyph-name="dollar" unicode="$" 
d="M87 269h35q9 -110 69.5 -169t180.5 -70v470q-181 112 -242 198q-42 61 -42 149q0 99 73.5 173t210.5 89v74h51v-74q66 -4 112 -15q23 -6 154 -56v-240h-31q-11 128 -67 187t-168 70v-409q203 -141 260.5 -208.5t57.5 -167.5q0 -111 -84 -195.5t-234 -97.5v-103h-51v103
q-76 4 -141 18t-144 46v228zM372 680v375q-81 -10 -120 -51.5t-39 -104.5q0 -59 35.5 -110t123.5 -109zM423 30q61 10 93 30q45 28 71 73.5t26 96.5q0 53 -31.5 100.5t-158.5 134.5v-435z" />
    <glyph glyph-name="percent" unicode="%" horiz-adv-x="1373" 
d="M1121 1117l-796 -1162h-71l795 1162h72zM293 1117q109 0 169 -90.5t60 -207.5q0 -140 -68 -216.5t-163 -76.5q-63 0 -116 35.5t-85 104.5t-32 153q0 85 32 156.5t88 106.5t115 35zM291 1071q-41 0 -73 -48t-32 -203q0 -112 18 -170q13 -45 42 -69q17 -14 42 -14
q39 0 66 42q40 62 40 206q0 153 -39 215q-26 41 -64 41zM1084 542q57 0 113.5 -36.5t87.5 -105.5t31 -152q0 -143 -68.5 -218t-161.5 -75q-59 0 -114 36t-87 103.5t-32 153.5q0 84 32 154.5t87 105t112 34.5zM1084 499q-38 0 -66 -43q-37 -57 -37 -214q0 -144 37 -201
q28 -41 66 -41q37 0 66 44q39 59 39 202q0 152 -39 212q-26 41 -66 41z" />
    <glyph glyph-name="ampersand" unicode="&#x26;" horiz-adv-x="1282" 
d="M841 703h338v-30q-70 -6 -103.5 -31t-104 -153t-159.5 -239q72 -84 128.5 -117.5t113.5 -33.5q55 0 94 30t55 89l29 -22q-29 -113 -95 -167t-154 -54q-66 0 -134 36t-149 121q-99 -89 -179.5 -123t-171.5 -34q-132 0 -210.5 71t-78.5 169q0 97 70 194t264 201
q-38 84 -52 137.5t-14 102.5q0 138 102 210q79 57 179 57q96 0 156.5 -57t60.5 -140q0 -85 -58.5 -149.5t-206.5 -140.5q102 -182 213 -334q142 169 142 285q0 37 -24 66q-18 22 -51 26v30zM534 682q100 47 149.5 107.5t49.5 134.5q0 58 -36 96t-89 38q-70 0 -106 -49
t-36 -95q0 -40 13.5 -88.5t54.5 -143.5zM658 179q-106 145 -147 211.5t-90 165.5q-97 -55 -145.5 -122t-48.5 -145q0 -86 55.5 -151.5t149.5 -65.5q51 0 98 20.5t128 86.5z" />
    <glyph glyph-name="quotesingle" unicode="'" horiz-adv-x="297" 
d="M127 646l-43 239q-19 99 -19 133q0 52 21 75.5t57 23.5q37 0 60.5 -24t23.5 -63q0 -29 -21 -146l-43 -238h-36z" />
    <glyph glyph-name="parenleft" unicode="(" horiz-adv-x="549" 
d="M512 -323v-30q-122 62 -203 144q-116 116 -178.5 275t-62.5 329q0 250 123 455.5t321 294.5v-34q-99 -55 -162.5 -150t-95 -240.5t-31.5 -304.5q0 -172 27 -313q20 -111 50 -178t80.5 -129t131.5 -119z" />
    <glyph glyph-name="parenright" unicode=")" horiz-adv-x="549" 
d="M37 1111v34q122 -61 204 -143q115 -117 177.5 -275.5t62.5 -329.5q0 -250 -122.5 -455.5t-321.5 -294.5v30q99 56 163 150.5t95 240.5t31 305q0 171 -27 313q-20 111 -50 178t-80 129t-132 118z" />
    <glyph glyph-name="asterisk" unicode="*" 
d="M398 840q-4 56 -23 111q-27 79 -27 108q0 42 19.5 64t48.5 22q25 0 43.5 -22t18.5 -62q0 -36 -21 -101t-26 -120q44 29 79 69q55 63 81.5 78.5t54.5 15.5q26 0 44 -18t18 -43q0 -30 -26.5 -53.5t-132.5 -46.5q-62 -14 -103 -31q42 -22 102 -33q98 -18 128 -44.5t30 -58.5
q0 -24 -18 -41.5t-42 -17.5q-25 0 -54 17t-79 75q-33 40 -82 74q1 -45 18 -99q29 -95 29 -130q0 -32 -19 -54t-41 -22q-30 0 -54 23q-17 17 -17 54q0 38 18.5 92.5t23.5 75t9 60.5q-48 -31 -83 -70q-59 -66 -89 -83q-21 -13 -43 -13q-28 0 -47 18.5t-19 40.5q0 21 16.5 43
t49.5 36q21 10 99 26q50 11 97 31q-43 21 -104 33q-99 21 -122 38q-36 27 -36 65q0 21 18 39.5t42 18.5q27 0 56.5 -17t74 -68t90.5 -80z" />
    <glyph glyph-name="plus" unicode="+" horiz-adv-x="930" 
d="M431 114v401h-401v66h401v400h64v-400h403v-66h-403v-401h-64z" />
    <glyph glyph-name="comma" unicode="," horiz-adv-x="412" 
d="M89 -275v36q82 27 127.5 84.5t45.5 122.5q0 15 -7 26q-5 7 -11 7q-9 0 -39 -16q-14 -8 -30 -8q-40 0 -63 23.5t-23 64.5q0 40 30 68t73 28q54 0 95 -46.5t41 -122.5q0 -83 -57.5 -154t-181.5 -113z" />
    <glyph glyph-name="hyphen" unicode="-" horiz-adv-x="549" 
d="M67 431h416v-122h-416v122z" />
    <glyph glyph-name="period" unicode="." horiz-adv-x="412" 
d="M206 156q38 0 63.5 -26t25.5 -63t-26 -63.5t-63 -26.5t-63 26.5t-26 63.5q0 38 26 63.5t63 25.5z" />
    <glyph glyph-name="slash" unicode="/" horiz-adv-x="458" 
d="M462 1145l-395 -1168h-65l396 1168h64z" />
    <glyph glyph-name="zero" unicode="0" 
d="M60 539q0 187 56 322t150 201q72 52 149 52q126 0 226 -128q125 -158 125 -430q0 -190 -55 -322.5t-140 -192.5t-164 -60q-156 0 -260 184q-87 155 -87 374zM217 519q0 -225 56 -368q46 -120 137 -120q43 0 90 39t71 131q37 139 37 391q0 186 -39 311q-29 93 -75 131
q-33 27 -79 27q-55 0 -98 -49q-58 -67 -79 -210.5t-21 -282.5z" />
    <glyph glyph-name="one" unicode="1" 
d="M193 985l266 129h26v-922q0 -91 8 -113.5t32 -35t98 -13.5v-30h-410v30q77 1 99.5 13t31.5 31.5t9 117.5v590q0 119 -8 153q-6 25 -21 37.5t-36 12.5q-30 0 -83 -25z" />
    <glyph glyph-name="two" unicode="2" 
d="M756 210l-77 -210h-644v30q285 259 400.5 423t115.5 300q0 104 -63.5 171t-151.5 67q-81 0 -145 -47t-94 -138h-30q20 149 103.5 228.5t207.5 79.5q133 0 222 -85.5t89 -200.5q0 -83 -39 -166q-59 -131 -193 -276q-200 -219 -250 -264h285q87 0 122 6t63 26t49 56h30z
" />
    <glyph glyph-name="three" unicode="3" 
d="M84 884q46 110 117.5 170t177.5 60q131 0 201 -85q54 -64 54 -136q0 -119 -150 -247q100 -39 151.5 -112.5t51.5 -172.5q0 -141 -90 -245q-117 -135 -340 -135q-110 0 -150 27t-40 59q0 23 19 41t45 18q20 0 41 -7q14 -4 62.5 -29.5t66.5 -29.5q30 -9 64 -9
q82 0 142.5 63.5t60.5 150.5q0 63 -28 124q-21 45 -46 68q-34 32 -94.5 58.5t-123.5 26.5h-26v24q64 8 128 46t93 91t29 116q0 83 -52 134.5t-129 51.5q-125 0 -209 -134z" />
    <glyph glyph-name="four" unicode="4" 
d="M767 403v-115h-146v-288h-133v288h-462v103l506 723h89v-711h146zM488 403v541l-383 -541h383z" />
    <glyph glyph-name="five" unicode="5" 
d="M716 1092l-63 -137h-329l-71 -147q213 -31 338 -158q107 -110 107 -258q0 -86 -35 -159.5t-88 -125t-119 -82.5q-92 -44 -190 -44t-142.5 33t-44.5 74q0 22 18.5 39.5t46.5 17.5q21 0 36.5 -6.5t53.5 -33.5q61 -41 123 -41q94 0 165 71t71 173q0 99 -63.5 185t-175.5 132
q-88 37 -239 42l209 425h392z" />
    <glyph glyph-name="six" unicode="6" 
d="M739 1114v-30q-106 -10 -173.5 -42t-133 -97t-108.5 -145t-72 -191q116 80 233 80q112 0 194 -90t82 -232q0 -137 -83 -249q-100 -137 -264 -137q-112 0 -190 74q-153 144 -153 373q0 147 58.5 279t168 234t209 137.5t185.5 35.5h47zM238 551q-14 -109 -14 -176
q0 -77 28.5 -167.5t84.5 -143.5q41 -38 100 -38q70 0 125 66t55 188q0 138 -54.5 238.5t-155.5 100.5q-30 0 -65 -13t-104 -55z" />
    <glyph glyph-name="seven" unicode="7" 
d="M166 1092h585v-31l-364 -1084h-90l326 983h-300q-91 0 -130 -21q-67 -37 -108 -115l-24 9z" />
    <glyph glyph-name="eight" unicode="8" 
d="M316 550q-129 106 -166.5 170.5t-37.5 133.5q0 106 82 183t218 77q132 0 212.5 -71.5t80.5 -163.5q0 -61 -43.5 -124.5t-180.5 -149.5q141 -110 187 -173q61 -82 61 -173q0 -115 -87.5 -196.5t-230.5 -81.5q-155 0 -242 97q-69 78 -69 171q0 72 48.5 143.5t167.5 157.5z
M443 636q96 87 122 137.5t26 113.5q0 85 -47.5 132.5t-129.5 47.5t-133.5 -47.5t-51.5 -110.5q0 -42 21 -84t61 -80zM354 519q-67 -56 -99 -122.5t-32 -143.5q0 -104 56.5 -166.5t144.5 -62.5q87 0 139.5 49t52.5 119q0 58 -31 104q-57 86 -231 223z" />
    <glyph glyph-name="nine" unicode="9" 
d="M87 -23v30q105 2 195 49t174 164.5t117 258.5q-126 -81 -228 -81q-116 0 -198 89t-82 236q0 143 82 255q99 136 259 136q134 0 230 -111q117 -138 117 -340q0 -182 -89 -339t-249 -261q-129 -86 -282 -86h-46zM586 539q15 104 15 167q0 78 -27 168.5t-75.5 139
t-110.5 48.5q-72 0 -126 -64.5t-54 -191.5q0 -170 72 -266q52 -69 129 -69q37 0 87.5 17.5t89.5 50.5z" />
    <glyph glyph-name="colon" unicode=":" horiz-adv-x="458" 
d="M233 760q37 0 63 -26t26 -63t-26 -63.5t-63 -26.5t-63.5 26.5t-26.5 63.5t26.5 63t63.5 26zM231 157q38 0 64 -26.5t26 -63.5t-26.5 -63.5t-63.5 -26.5t-63 26.5t-26 63.5t26 63.5t63 26.5z" />
    <glyph glyph-name="semicolon" unicode=";" horiz-adv-x="458" 
d="M227 761q37 0 63 -26t26 -63t-26 -63t-63 -26t-63 26t-26 63t26 63t63 26zM114 -275v36q83 27 128.5 84.5t45.5 122.5q0 15 -7 26q-6 7 -11 7q-9 0 -39 -16q-14 -8 -31 -8q-39 0 -62.5 23.5t-23.5 64.5q0 40 30.5 68t73.5 28q53 0 94.5 -46.5t41.5 -122.5
q0 -83 -57.5 -154t-182.5 -113z" />
    <glyph glyph-name="less" unicode="&#x3c;" horiz-adv-x="930" 
d="M30 568l866 375v-70l-745 -323l745 -327v-72l-866 378v39z" />
    <glyph glyph-name="equal" unicode="=" horiz-adv-x="930" 
d="M30 711h868v-66h-868v66zM30 448h868v-66h-868v66z" />
    <glyph glyph-name="greater" unicode="&#x3e;" horiz-adv-x="930" 
d="M896 526l-866 -375v69l746 323l-746 327v73l866 -378v-39z" />
    <glyph glyph-name="question" unicode="?" horiz-adv-x="732" 
d="M365 258h-33q6 101 26 167.5t82 184.5q48 91 62.5 140t14.5 98q0 103 -54.5 163t-133.5 60q-70 0 -110 -33t-40 -71q0 -30 24 -73.5t24 -65.5q0 -29 -18.5 -49t-45.5 -20q-33 0 -61 33.5t-28 93.5q0 90 78 160.5t212 70.5q166 0 244 -97q58 -71 58 -157q0 -59 -26.5 -121
t-99.5 -145q-117 -133 -143 -188t-32 -151zM354 158q38 0 64 -26.5t26 -63.5t-26.5 -63.5t-63.5 -26.5t-63 26.5t-26 63.5t26 63.5t63 26.5z" />
    <glyph glyph-name="at" unicode="@" horiz-adv-x="1518" 
d="M1133 771l-94 -321q-52 -180 -63.5 -228.5t-11.5 -77.5q0 -26 17.5 -43.5t43.5 -17.5q59 0 141.5 58.5t141 190.5t58.5 276q0 137 -66.5 254t-187.5 179.5t-268 62.5q-186 0 -345 -99t-252 -284t-93 -385q0 -185 81.5 -336t229.5 -229t319 -78q212 0 383 113.5t264 331.5
h47q-72 -220 -263 -357t-435 -137q-192 0 -356 90.5t-255 257t-91 365.5q0 213 100 397t280 287.5t382 103.5q166 0 300 -69t204 -201.5t70 -281.5q0 -147 -65.5 -291.5t-167 -210.5t-211.5 -66q-61 0 -92 29t-31 81q0 45 14 119q-119 -145 -190.5 -187.5t-126.5 -42.5
q-57 0 -101.5 51t-44.5 137q0 116 76.5 261t201.5 236q93 67 166 67q54 0 90 -28t48 -83l27 88zM851 738q-60 0 -122 -63q-91 -94 -156 -252q-47 -116 -47 -187q0 -51 28.5 -82.5t63.5 -31.5q47 0 98.5 35t108 109t81.5 148q46 128 46 208q0 53 -29.5 84.5t-71.5 31.5z" />
    <glyph glyph-name="bracketleft" unicode="[" horiz-adv-x="549" 
d="M489 -327h-354v1444h354v-64h-233v-1317h233v-63z" />
    <glyph glyph-name="backslash" unicode="\" horiz-adv-x="458" 
d="M67 1145l394 -1168h-64l-395 1168h65z" />
    <glyph glyph-name="bracketright" unicode="]" horiz-adv-x="549" 
d="M60 1117h355v-1445h-355v64h234v1317h-234v64z" />
    <glyph glyph-name="asciicircum" unicode="^" horiz-adv-x="774" 
d="M401 1114l342 -577h-74l-282 472l-282 -472h-75l347 577h24z" />
    <glyph glyph-name="underscore" unicode="_" 
d="M839 -356h-853v68h853v-68z" />
    <glyph glyph-name="grave" unicode="`" horiz-adv-x="549" 
d="M95 1119h180l85 -278h-28z" />
    <glyph glyph-name="braceleft" unicode="{" horiz-adv-x="791" 
d="M677 -328v-28q-134 19 -218.5 109.5t-84.5 200.5q0 58 18.5 135t18.5 119q0 58 -48.5 108.5t-134.5 61.5v33q86 12 134.5 61.5t48.5 108.5q0 43 -18.5 119.5t-18.5 135.5q0 109 84.5 200t218.5 109v-28q-94 -23 -138 -74t-44 -112q0 -48 18 -125.5t18 -132.5
q0 -81 -59.5 -157.5t-177.5 -118.5q116 -43 176.5 -121t60.5 -159q0 -55 -18 -132.5t-18 -125.5q0 -61 44 -112t138 -75z" />
    <glyph glyph-name="bar" unicode="|" horiz-adv-x="330" 
d="M196 1145v-1501h-66v1501h66z" />
    <glyph glyph-name="braceright" unicode="}" horiz-adv-x="791" 
d="M142 1117v28q135 -18 219 -108.5t84 -201.5q0 -58 -18.5 -134.5t-18.5 -119.5q0 -58 49 -108t135 -62v-33q-86 -11 -135 -61.5t-49 -108.5q0 -42 18.5 -119t18.5 -135q0 -109 -84 -200t-219 -110v28q95 24 138.5 74.5t43.5 112.5q0 48 -18.5 125.5t-18.5 131.5
q0 82 60 158.5t179 118.5q-116 43 -177.5 121t-61.5 159q0 55 18.5 132.5t18.5 125.5q0 61 -43.5 112t-138.5 74z" />
    <glyph glyph-name="asciitilde" unicode="~" horiz-adv-x="892" 
d="M839 543h36q-3 -104 -59.5 -163.5t-137.5 -59.5q-37 0 -80 12.5t-220 85.5q-124 51 -177 51q-56 0 -94.5 -34.5t-54.5 -112.5h-36q5 109 59.5 166.5t128.5 57.5q36 0 73 -11q84 -25 220.5 -83t191.5 -58q60 0 101.5 38.5t48.5 110.5z" />
    <glyph glyph-name="cent" unicode="&#xa2;" 
d="M725 281q-38 -151 -132 -235q-72 -65 -178 -65q-65 0 -130 28l-114 -314h-57l125 344q-65 61 -94 124q-41 88 -41 201q0 204 126 314q97 84 220 84q16 0 49 -3l113 308h58l-117 -323q81 -36 111 -70q39 -44 39 -93q0 -31 -19.5 -49.5t-56.5 -18.5q-44 0 -69 30
q-15 18 -21 66q-3 25 -14 53l-183 -508q45 -31 75 -41q23 -8 56 -8q49 0 94 20.5t68.5 48t66.5 117.5zM298 201l179 495q-22 10 -48 10q-82 0 -130 -60q-66 -80 -66 -215q0 -61 14 -111.5t51 -118.5z" />
    <glyph glyph-name="multiply" unicode="&#xd7;" horiz-adv-x="930" 
d="M133 264l284 284l-283 284l46 46l284 -283l283 283l45 -46l-283 -283l285 -285l-46 -47l-285 285l-284 -284z" />
    <glyph glyph-name="divide" unicode="&#xf7;" horiz-adv-x="905" 
d="M452 865q29 0 49.5 -20.5t20.5 -49.5t-20.5 -49.5t-49.5 -20.5t-49.5 20.5t-20.5 49.5t20.5 49.5t49.5 20.5zM886 515h-867v66h867v-66zM452 366q30 0 50.5 -21t20.5 -50t-21 -49.5t-50 -20.5t-49.5 20.5t-20.5 49.5t20.5 50t49.5 21z" />
    <glyph glyph-name="uni0901" unicode="&#x901;" horiz-adv-x="0" 
d="M-228 1300q-40 0 -70 30t-30 70q0 41 28.5 70.5t71.5 29.5q44 0 72 -28t28 -72q0 -43 -29.5 -71.5t-70.5 -28.5zM192 1450q0 -133 -122.5 -226.5t-297.5 -93.5q-173 0 -296.5 94.5t-123.5 225.5h200q0 -103 64.5 -176.5t155.5 -73.5t155.5 73.5t64.5 176.5h200z" />
    <glyph glyph-name="uni0902" unicode="&#x902;" horiz-adv-x="0" 
d="M-228 1282q-36 0 -62 26t-26 62t26 62t62 26t62 -26t26 -62t-26 -62t-62 -26z" />
    <glyph glyph-name="uni0903" unicode="&#x903;" horiz-adv-x="480" 
d="M340 580h-200v200h200v-200zM340 100h-200v200h200v-200z" />
    <glyph glyph-name="uni0905" unicode="&#x905;" horiz-adv-x="1248" 
d="M38 440h60q0 -139 85.5 -239.5t204.5 -100.5q86 0 148 59t62 145q0 87 -61.5 146.5t-148.5 59.5h-70v60h70q78 0 134 53t56 131q0 79 -55.5 132.5t-134.5 53.5q-68 0 -122.5 -41.5t-77.5 -108.5l-50 30q32 89 114 144.5t186 55.5q132 0 226 -76t94 -184
q0 -79 -51.5 -137.5t-128.5 -72.5v-10q97 -16 158.5 -86.5t61.5 -163.5q0 -121 -112 -205.5t-268 -84.5t-268 130t-112 310zM1098 960v-820q0 -41 42 -70.5t98 -29.5v-40h-460v40q56 0 98 29t42 71v370h-120v70h120v380h-120v80h520v-80h-220z" />
    <glyph glyph-name="uni0906" unicode="&#x906;" horiz-adv-x="1736" 
d="M38 440h60q0 -139 85.5 -239.5t204.5 -100.5q86 0 148 59t62 145q0 87 -61.5 146.5t-148.5 59.5h-70v60h70q78 0 134 53t56 131q0 79 -55.5 132.5t-134.5 53.5q-68 0 -122.5 -41.5t-77.5 -108.5l-50 30q32 89 114 144.5t186 55.5q132 0 226 -76t94 -184
q0 -79 -51.5 -137.5t-128.5 -72.5v-10q97 -16 158.5 -86.5t61.5 -163.5q0 -121 -112 -205.5t-268 -84.5t-268 130t-112 310zM1098 960v-820q0 -41 42 -70.5t98 -29.5v-40h-460v40q56 0 98 29t42 71v370h-120v70h120v380h-120v80h1008v-80h-218v-840q0 -33 42.5 -56.5
t97.5 -23.5v-40h-460v40q56 0 98 23t42 57v840h-310zM1248 0z" />
    <glyph glyph-name="uni0907" unicode="&#x907;" horiz-adv-x="860" 
d="M930 960h-234v-200h-320q-43 0 -71.5 -29.5t-28.5 -70.5q0 -57 56.5 -98.5t133.5 -41.5h150q67 0 113.5 -63t46.5 -157q0 -101 -104.5 -170.5t-255.5 -69.5q92 -90 190 -90q126 0 190 90l30 -40q-85 -150 -290 -150q-56 0 -130 38t-150 106q-174 156 -220 156v50h190
q36 -59 140 -120q85 0 147.5 59.5t62.5 140.5q0 60 -34 100t-86 40h-160q-91 0 -155.5 59.5t-64.5 140.5q0 82 81 141t199 59h160v120h-522v80h936v-80z" />
    <glyph glyph-name="uni0908" unicode="&#x908;" horiz-adv-x="860" 
d="M930 960h-234v-200h-320q-43 0 -71.5 -29.5t-28.5 -70.5q0 -57 56.5 -98.5t133.5 -41.5h150q67 0 113.5 -63t46.5 -157q0 -101 -104.5 -170.5t-255.5 -69.5q92 -90 190 -90q126 0 190 90l30 -40q-85 -150 -290 -150q-56 0 -130 38t-150 106q-174 156 -220 156v50h190
q36 -59 140 -120q85 0 147.5 59.5t62.5 140.5q0 60 -34 100t-86 40h-160q-91 0 -155.5 59.5t-64.5 140.5q0 82 81 141t199 59h160v120h-522v80h936v-80zM825 1406h-120q-63 0 -101.5 -32.5t-38.5 -83.5q0 -53 40 -117t100 -113h-200q-60 49 -100 113t-40 117q0 84 68.5 138
t171.5 54h220v-76z" />
    <glyph glyph-name="uni0909" unicode="&#x909;" horiz-adv-x="936" 
d="M1006 960h-398q95 -17 152.5 -72.5t57.5 -127.5q0 -69 -50.5 -122.5t-129.5 -67.5v-10q101 -18 165.5 -93.5t64.5 -176.5q0 -120 -115 -205t-275 -85q-181 0 -310.5 146.5t-129.5 353.5h60q0 -156 98 -268t232 -112q91 0 155.5 53.5t64.5 126.5q0 93 -66.5 156.5
t-163.5 63.5h-80v80h100q81 0 140.5 52.5t59.5 127.5q0 66 -49.5 115.5t-130.5 64.5h-464v80h1012v-80z" />
    <glyph glyph-name="uni090A" unicode="&#x90a;" horiz-adv-x="1414" 
d="M1484 960h-876q95 -17 152.5 -72.5t57.5 -127.5q0 -69 -50.5 -122.5t-129.5 -67.5v-10q101 -18 165.5 -93.5t64.5 -176.5q0 -120 -115 -205t-275 -85q-181 0 -310.5 146.5t-129.5 353.5h60q0 -156 98 -268t232 -112q91 0 155.5 53.5t64.5 126.5q0 93 -66.5 156.5
t-163.5 63.5h-80v80h100q81 0 140.5 52.5t59.5 127.5q0 66 -49.5 115.5t-130.5 64.5h-464v80h1490v-80zM918 30l10 30q103 0 176.5 72.5t73.5 177.5q0 117 -61 208.5t-159 91.5q-34 0 -70 -20v40q53 40 130 40q139 0 239.5 -93t100.5 -227q0 -139 -93 -239.5t-227 -100.5
q-78 0 -120 20zM936 0z" />
    <glyph glyph-name="uni090B" unicode="&#x90b;" horiz-adv-x="1358" 
d="M1428 960h-600v-320l118 78q-24 56 -24 92q0 47 38 78.5t88 31.5q45 0 67.5 -20t22.5 -60q0 -37 -26 -71t-78 -65q109 -91 191.5 -214t82.5 -230q0 -97 -84.5 -158.5t-195.5 -61.5v40q50 0 80 59.5t30 130.5q0 77 -41 173t-123 211l-146 -104v-430q0 -33 42.5 -56.5
t97.5 -23.5v-40h-460v40q56 0 98 23t42 57v310l-560 -380l-30 60l410 290l-120 200q-42 70 -82 105t-78 35q-26 0 -56 -10t-64 -30l-40 40q37 62 96.5 101t123.5 39q75 0 135 -45t105 -135l110 -220l50 30v450h-654v80h1434v-80z" />
    <glyph glyph-name="uni090C" unicode="&#x90c;" horiz-adv-x="1360" 
d="M1126 470q0 95 -53.5 167.5t-136.5 72.5q-87 0 -148.5 -66.5t-61.5 -163.5h-56q0 98 -58 164t-144 66q-92 0 -151 -85.5t-59 -194.5q0 -108 51 -194t135 -86q60 0 112 50l28 -40q-65 -90 -176 -90q-143 0 -245.5 103.5t-102.5 246.5q0 157 100.5 268.5t245.5 111.5
q101 0 180 -48t112 -132q43 118 192 160v180h-896v80h1436v-80h-382v-170q113 -22 184.5 -108.5t71.5 -201.5q0 -137 -91.5 -233.5t-220.5 -96.5q-67 0 -114.5 -50.5t-47.5 -119.5q0 -72 48 -126t112 -54h210v-60h-210q-153 0 -246.5 66t-93.5 174q0 95 75.5 161.5
t184.5 66.5q89 0 152.5 76.5t63.5 185.5z" />
    <glyph glyph-name="uni090D" unicode="&#x90d;" horiz-adv-x="994" 
d="M1064 960h-300q140 -120 140 -300q0 -135 -82.5 -232.5t-197.5 -97.5q-77 0 -147 29.5t-113 80.5l50 50q68 -80 130 -80q74 0 127 72t53 178q0 164 -160 300h-280v-620q0 -99 63 -169.5t157 -70.5h300q61 0 100.5 -28t39.5 -72q0 -42 -48 -71t-112 -29h-220v40
q36 0 63 15.5t27 34.5q0 20 -41.5 35t-108.5 15q-164 0 -282 124t-118 296v500h-110v80h1070v-80zM884 1452q0 -133 -122.5 -226.5t-297.5 -93.5q-173 0 -296.5 94.5t-123.5 225.5h200q0 -106 62 -183t158 -77t158 77t62 183h200z" />
    <glyph glyph-name="uni090E" unicode="&#x90e;" horiz-adv-x="994" 
d="M1064 960h-300q140 -120 140 -300q0 -135 -82.5 -232.5t-197.5 -97.5q-77 0 -147 29.5t-113 80.5l50 50q68 -80 130 -80q74 0 127 72t53 178q0 164 -160 300h-280v-620q0 -99 63 -169.5t157 -70.5h300q61 0 100.5 -28t39.5 -72q0 -42 -48 -71t-112 -29h-220v40
q36 0 63 15.5t27 34.5q0 20 -41.5 35t-108.5 15q-164 0 -282 124t-118 296v500h-110v80h1070v-80zM804 1060h-160q0 76 -87 129t-209 53q-155 0 -264.5 90t-109.5 218h200q0 -103 80.5 -176.5t193.5 -73.5q138 0 247 -66t109 -174z" />
    <glyph glyph-name="uni090F" unicode="&#x90f;" horiz-adv-x="994" 
d="M1064 960h-300q140 -120 140 -300q0 -135 -82.5 -232.5t-197.5 -97.5q-77 0 -147 29.5t-113 80.5l50 50q68 -80 130 -80q74 0 127 72t53 178q0 164 -160 300h-280v-620q0 -99 63 -169.5t157 -70.5h300q61 0 100.5 -28t39.5 -72q0 -42 -48 -71t-112 -29h-220v40
q36 0 63 15.5t27 34.5q0 20 -41.5 35t-108.5 15q-164 0 -282 124t-118 296v500h-110v80h1070v-80z" />
    <glyph glyph-name="uni0910" unicode="&#x910;" horiz-adv-x="994" 
d="M1064 960h-300q140 -120 140 -300q0 -135 -82.5 -232.5t-197.5 -97.5q-77 0 -147 29.5t-113 80.5l50 50q68 -80 130 -80q74 0 127 72t53 178q0 164 -160 300h-280v-620q0 -99 63 -169.5t157 -70.5h300q61 0 100.5 -28t39.5 -72q0 -42 -48 -71t-112 -29h-220v40
q36 0 63 15.5t27 34.5q0 20 -41.5 35t-108.5 15q-164 0 -282 124t-118 296v500h-110v80h1070v-80zM748 1060h-200q-57 0 -100 38l-320 286q-26 23 -51.5 30.5t-68.5 7.5h-40v58h220q78 0 140 -58l300 -276q41 -38 100 -38h20v-48z" />
    <glyph glyph-name="uni0911" unicode="&#x911;" horiz-adv-x="1736" 
d="M38 440h60q0 -139 85.5 -239.5t204.5 -100.5q86 0 148 59t62 145q0 87 -61.5 146.5t-148.5 59.5h-70v60h70q78 0 134 53t56 131q0 79 -55.5 132.5t-134.5 53.5q-68 0 -122.5 -41.5t-77.5 -108.5l-50 30q32 89 114 144.5t186 55.5q132 0 226 -76t94 -184
q0 -79 -51.5 -137.5t-128.5 -72.5v-10q97 -16 158.5 -86.5t61.5 -163.5q0 -121 -112 -205.5t-268 -84.5t-268 130t-112 310zM1098 960v-820q0 -41 42 -70.5t98 -29.5v-40h-460v40q56 0 98 29t42 71v370h-120v70h120v380h-120v80h1008v-80h-218v-840q0 -33 42.5 -56.5
t97.5 -23.5v-40h-460v40q56 0 98 23t42 57v840h-310zM1248 0zM1666 1460q0 -133 -122.5 -226.5t-297.5 -93.5q-173 0 -296.5 94.5t-123.5 225.5h200q0 -106 62 -183t158 -77t158 77t62 183h200z" />
    <glyph glyph-name="uni0912" unicode="&#x912;" horiz-adv-x="1736" 
d="M38 440h60q0 -139 85.5 -239.5t204.5 -100.5q86 0 148 59t62 145q0 87 -61.5 146.5t-148.5 59.5h-70v60h70q78 0 134 53t56 131q0 79 -55.5 132.5t-134.5 53.5q-68 0 -122.5 -41.5t-77.5 -108.5l-50 30q32 89 114 144.5t186 55.5q132 0 226 -76t94 -184
q0 -79 -51.5 -137.5t-128.5 -72.5v-10q97 -16 158.5 -86.5t61.5 -163.5q0 -121 -112 -205.5t-268 -84.5t-268 130t-112 310zM1098 960v-820q0 -41 42 -70.5t98 -29.5v-40h-460v40q56 0 98 29t42 71v370h-120v70h120v380h-120v80h1008v-80h-218v-840q0 -33 42.5 -56.5
t97.5 -23.5v-40h-460v40q56 0 98 23t42 57v840h-310zM1248 0zM1579 1060h-160q0 76 -87 129t-209 53q-155 0 -264.5 90t-109.5 218h200q0 -103 80.5 -176.5t193.5 -73.5q138 0 247 -66t109 -174z" />
    <glyph glyph-name="uni0913" unicode="&#x913;" horiz-adv-x="1736" 
d="M38 440h60q0 -139 85.5 -239.5t204.5 -100.5q86 0 148 59t62 145q0 87 -61.5 146.5t-148.5 59.5h-70v60h70q78 0 134 53t56 131q0 79 -55.5 132.5t-134.5 53.5q-68 0 -122.5 -41.5t-77.5 -108.5l-50 30q32 89 114 144.5t186 55.5q132 0 226 -76t94 -184
q0 -79 -51.5 -137.5t-128.5 -72.5v-10q97 -16 158.5 -86.5t61.5 -163.5q0 -121 -112 -205.5t-268 -84.5t-268 130t-112 310zM1098 960v-820q0 -41 42 -70.5t98 -29.5v-40h-460v40q56 0 98 29t42 71v370h-120v70h120v380h-120v80h1008v-80h-218v-840q0 -33 42.5 -56.5
t97.5 -23.5v-40h-460v40q56 0 98 23t42 57v840h-310zM1248 0zM1608 1060h-200q-57 0 -100 38l-320 286q-26 23 -51.5 30.5t-68.5 7.5h-40v58h220q78 0 140 -58l300 -276q41 -38 100 -38h20v-48z" />
    <glyph glyph-name="uni0914" unicode="&#x914;" horiz-adv-x="1736" 
d="M38 440h60q0 -139 85.5 -239.5t204.5 -100.5q86 0 148 59t62 145q0 87 -61.5 146.5t-148.5 59.5h-70v60h70q78 0 134 53t56 131q0 79 -55.5 132.5t-134.5 53.5q-68 0 -122.5 -41.5t-77.5 -108.5l-50 30q32 89 114 144.5t186 55.5q132 0 226 -76t94 -184
q0 -79 -51.5 -137.5t-128.5 -72.5v-10q97 -16 158.5 -86.5t61.5 -163.5q0 -121 -112 -205.5t-268 -84.5t-268 130t-112 310zM1098 960v-820q0 -41 42 -70.5t98 -29.5v-40h-460v40q56 0 98 29t42 71v370h-120v70h120v380h-120v80h1008v-80h-218v-840q0 -33 42.5 -56.5
t97.5 -23.5v-40h-460v40q56 0 98 23t42 57v840h-310zM1248 0zM1609 1140h-160q-49 0 -88 48l-164 202q-41 50 -108 50h-140v60h294q62 0 104 -54l162 -206q31 -40 80 -40h20v-60zM1409 1060h-220q-57 0 -120 50l-240 190q-51 40 -100 40h-80v60h220q70 0 120 -40l252 -200
q50 -40 106 -40h62v-60z" />
    <glyph glyph-name="uni0915" unicode="&#x915;" horiz-adv-x="1576" 
d="M698 300v390q-83 100 -220 100q-105 0 -172.5 -84.5t-67.5 -205.5q0 -118 69 -204t171 -86q113 0 220 90zM878 700v-580q0 -33 42.5 -56.5t97.5 -23.5v-40h-460v40q56 0 98 23t42 57v110q-107 -90 -260 -90q-156 0 -268 106t-112 254q0 149 110.5 254.5t269.5 105.5
q138 0 260 -100v200h-704v80h1652v-80h-768v-180q98 80 260 80q160 0 270 -104t110 -256q0 -151 -111.5 -255.5t-268.5 -104.5q-119 0 -220 80l20 50q69 -60 160 -60q99 0 169.5 85.5t70.5 204.5q0 121 -69.5 205.5t-170.5 84.5q-143 0 -220 -90z" />
    <glyph glyph-name="uni0916" unicode="&#x916;" horiz-adv-x="1720" 
d="M1392 300v380q-49 130 -220 130q-109 0 -184.5 -90.5t-75.5 -219.5q0 -135 76.5 -232.5t183.5 -97.5q66 0 126 35t94 95zM1392 210q-51 -51 -121 -80.5t-139 -29.5q-130 0 -220 50q-59 -71 -144.5 -110.5t-175.5 -39.5q-170 0 -300 130q-210 210 -280 210l20 60
q110 -40 180 -40q128 0 214 101.5t86 238.5q0 85 -54 156t-146 104h-318v80h1796v-80h-218v-840q0 -33 42.5 -56.5t97.5 -23.5v-40h-460v40q56 0 98 23t42 57v90zM1392 780v180h-960q113 -30 186.5 -112.5t73.5 -187.5q0 -145 -105.5 -247.5t-254.5 -102.5
q83 -98 184.5 -154t195.5 -56q62 0 160 80q-65 55 -102.5 141t-37.5 179q0 157 116.5 268.5t283.5 111.5q138 0 260 -100z" />
    <glyph glyph-name="uni0917" unicode="&#x917;" horiz-adv-x="1262" 
d="M344 620q-50 0 -85 -54t-35 -126t35.5 -126t84.5 -54q50 0 85 52t35 128q0 77 -34 128.5t-86 51.5zM934 960h-510q152 -27 256 -127t104 -233q0 -167 -129.5 -283.5t-310.5 -116.5q-123 0 -211.5 71.5t-88.5 172.5t79.5 173.5t190.5 72.5q101 0 170.5 -72.5t69.5 -177.5
h10q40 49 40 160q0 134 -97.5 234t-242.5 126h-270v80h1338v-80h-218v-840q0 -33 42.5 -56.5t97.5 -23.5v-40h-460v40q56 0 98 23t42 57v840zM842 10z" />
    <glyph glyph-name="uni0918" unicode="&#x918;" horiz-adv-x="1104" 
d="M776 960h-290q-51 0 -100.5 -48.5t-49.5 -121.5q0 -61 35.5 -105.5t84.5 -44.5h60v-60h-60q-81 0 -140.5 -56.5t-59.5 -133.5q0 -84 79.5 -137t180.5 -53q75 0 140 32.5t120 97.5v630zM776 260q-69 -80 -169 -120t-231 -40q-127 0 -223.5 73.5t-96.5 186.5
q0 91 67.5 161.5t172.5 88.5v10q-67 6 -113.5 51.5t-46.5 108.5q0 57 46 106.5t114 73.5h-302v80h1180v-80h-218v-840q0 -33 42.5 -56.5t97.5 -23.5v-40h-460v40q56 0 98 23t42 57v140z" />
    <glyph glyph-name="uni0919" unicode="&#x919;" horiz-adv-x="1230" 
d="M1300 960h-364v-220h-320q-85 0 -142.5 -29t-57.5 -71q0 -41 60.5 -70.5t139.5 -29.5h120q117 0 198.5 -66.5t81.5 -163.5q0 -128 -130 -219t-310 -91q-215 0 -367.5 160t-172.5 390l60 10q18 -198 160 -334t330 -136q105 0 177.5 61.5t72.5 148.5q0 71 -46.5 120.5
t-113.5 49.5h-170q-111 0 -190.5 56t-79.5 134q0 66 78 113t192 47h250v140h-762v80h1306v-80zM1084 526q-36 0 -62 26t-26 62t26 62t62 26t62 -26t26 -62t-26 -62t-62 -26zM1130 0z" />
    <glyph glyph-name="uni091A" unicode="&#x91a;" horiz-adv-x="1192" 
d="M864 220q-71 -70 -161 -105t-199 -35q-165 0 -282.5 100.5t-117.5 239.5q0 100 81.5 186.5t208.5 133.5h-370v60h760v-60h-160q-133 0 -226.5 -84.5t-93.5 -205.5q0 -119 88.5 -204.5t211.5 -85.5q75 0 140 32.5t120 97.5v670h-870v80h1268v-80h-218v-840
q0 -33 42.5 -56.5t97.5 -23.5v-40h-460v40q56 0 98 23t42 57v100z" />
    <glyph glyph-name="uni091B" unicode="&#x91b;" horiz-adv-x="1222" 
d="M950 300q30 82 30 200q0 104 -29 172t-71 68t-71 -57.5t-29 -132.5q0 -103 50 -176.5t120 -73.5zM980 780q80 -15 130 -92t50 -188q0 -214 -165.5 -357t-394.5 -143q-239 0 -384.5 76.5t-145.5 203.5q0 80 69 141t173 69l-2 10q-93 8 -156.5 60.5t-63.5 119.5
q0 81 72.5 140.5t177.5 59.5q92 0 160 -60l-30 -40q-41 30 -80 30q-51 0 -85.5 -39t-34.5 -91q0 -64 60 -112t140 -48v-40q-93 0 -156.5 -58.5t-63.5 -141.5q0 -105 99.5 -162.5t250.5 -57.5q118 0 213 55.5t127 144.5q-129 0 -224.5 80t-95.5 200q0 88 51 157t129 83v180
h-806v80h1298v-80h-312v-180zM878 796z" />
    <glyph glyph-name="uni091C" unicode="&#x91c;" horiz-adv-x="1334" 
d="M1006 661h-340q93 -34 146.5 -109.5t53.5 -171.5q0 -141 -102.5 -240.5t-247.5 -99.5q-194 0 -332 185.5t-138 444.5h60q17 -191 116 -335.5t244 -144.5q93 0 156.5 64t63.5 156q0 105 -69.5 178t-170.5 73h-40v60h600v239h-1012v80h1410v-80h-218v-840q0 -33 42.5 -56.5
t97.5 -23.5v-40h-460v40q56 0 98 23t42 57v541z" />
    <glyph glyph-name="uni091D" unicode="&#x91d;" horiz-adv-x="1366" 
d="M1436 960h-218v-840q0 -33 42.5 -56.5t97.5 -23.5v-40h-460v40q56 0 98 23t42 57v280h-170q10 -28 10 -60q0 -107 -104.5 -173.5t-235.5 -66.5h-60q49 -40 99 -60t101 -20q52 0 120 40l20 -20q-121 -100 -220 -100q-106 0 -197.5 34.5t-152.5 95.5q-106 106 -230 150v40
h310q25 -44 78 -72t112 -28q78 0 129 52t51 128q0 55 -41.5 87.5t-108.5 32.5h-210q-106 0 -168 42.5t-62 117.5q0 73 66 126.5t164 53.5h260v160h-604v80h1442v-80zM1038 460v500h-260v-230h-260q-100 0 -150 -27.5t-50 -82.5q0 -45 45 -67.5t135 -22.5q34 0 100 10
q67 10 100 10q60 0 102.5 -24.5t57.5 -65.5h180z" />
    <glyph glyph-name="uni091E" unicode="&#x91e;" horiz-adv-x="1016" 
d="M688 500h-162q-18 -109 -94.5 -174.5t-183.5 -65.5q-137 0 -225 123l24 37q55 -60 123 -60q79 0 128.5 51.5t49.5 129.5q0 80 -47.5 130t-126.5 50q-70 0 -127 -47l-18 41q91 104 225 104q114 0 185.5 -67.5t86.5 -192.5h162v402h-694v79h1092v-79h-218v-840
q0 -37 43 -58.5t97 -21.5v-41h-459v41q55 0 97 22t42 58v379z" />
    <glyph glyph-name="uni091F" unicode="&#x91f;" horiz-adv-x="976" 
d="M1046 960h-210v-280q-150 40 -260 40q-139 0 -239.5 -93t-100.5 -227q0 -131 111.5 -225.5t268.5 -94.5q151 0 310 130l30 -30q-72 -86 -178 -133t-222 -47q-199 0 -349.5 116t-150.5 294q0 159 137.5 269.5t332.5 110.5q74 0 130 -10v180h-662v80h1052v-80z" />
    <glyph glyph-name="uni0920" unicode="&#x920;" horiz-adv-x="1118" 
d="M1188 960h-328v-200h-90q132 -49 211 -147.5t79 -212.5q0 -167 -135.5 -283.5t-324.5 -116.5h-80q-188 0 -324 118t-136 282q0 165 134.5 282.5t325.5 117.5h160v160h-686v80h1194v-80zM600 740h-80q-121 0 -200.5 -102.5t-79.5 -237.5t79.5 -237.5t200.5 -102.5h80
q121 0 200.5 102.5t79.5 237.5t-79.5 237.5t-200.5 102.5z" />
    <glyph glyph-name="uni0921" unicode="&#x921;" horiz-adv-x="1130" 
d="M1200 960h-264v-220h-340q-90 0 -135 -25t-45 -75t50 -75t150 -25h120q117 0 198.5 -66.5t81.5 -163.5q0 -128 -130 -219t-310 -91q-215 0 -367.5 160t-172.5 390l60 10q18 -198 160 -334t330 -136q106 0 178 60.5t72 149.5q0 72 -48.5 121t-123.5 49h-158
q-118 0 -194 52t-76 138q0 73 74.5 116.5t195.5 43.5h250v140h-762v80h1206v-80z" />
    <glyph glyph-name="uni0922" unicode="&#x922;" horiz-adv-x="1152" 
d="M1222 960h-284v-220h-280q-173 0 -296.5 -100.5t-123.5 -239.5q0 -137 86 -238.5t214 -101.5h80q-55 39 -87.5 110.5t-32.5 159.5q0 121 87.5 205.5t212.5 84.5t212.5 -87.5t87.5 -212.5q0 -134 -100.5 -227t-239.5 -93h-220q-196 0 -338 118t-142 282q0 167 145.5 283.5
t354.5 116.5h200v160h-764v80h1228v-80zM758 540q-75 0 -127.5 -68t-52.5 -162q0 -102 53.5 -176t126.5 -74q66 0 113 72t47 178q0 99 -46 164.5t-114 65.5z" />
    <glyph glyph-name="uni0923" unicode="&#x923;" horiz-adv-x="1284" 
d="M556 960h-280v-500q0 -91 41.5 -155.5t98.5 -64.5q58 0 99 63t41 157v500zM956 960h-220v-500q0 -120 -95.5 -200t-224.5 -80t-224.5 80t-95.5 200v500h-102v80h1360v-80h-218v-840q0 -33 42.5 -56.5t97.5 -23.5v-40h-460v40q56 0 98 23t42 57v840zM832 10z" />
    <glyph glyph-name="uni0924" unicode="&#x924;" horiz-adv-x="1154" 
d="M826 670q-97 80 -280 80q-125 0 -212.5 -90.5t-87.5 -219.5q0 -78 43 -158t117 -142l-140 -140q-95 79 -147.5 186.5t-52.5 223.5q0 169 141.5 289.5t338.5 120.5q183 0 280 -80v220h-832v80h1230v-80h-218v-840q0 -33 42.5 -56.5t97.5 -23.5v-40h-460v40q56 0 98 23
t42 57v550z" />
    <glyph glyph-name="uni0925" unicode="&#x925;" horiz-adv-x="1212" 
d="M564 760v80q0 80 -34.5 135t-85.5 55q-49 0 -84.5 -57t-35.5 -133q0 -56 36 -98t84 -42q53 0 120 60zM884 250q-61 -72 -159 -111t-211 -39q-198 0 -334 147.5t-136 352.5q110 -40 200 -40q97 0 173.5 29t106.5 81q-82 -30 -120 -30q-107 0 -183.5 59.5t-76.5 140.5
q0 105 90 172.5t210 67.5q121 0 210.5 -74t89.5 -186q0 -144 -123.5 -236.5t-279.5 -91.5q-47 0 -97 8q0 -123 105.5 -211.5t254.5 -88.5q178 0 280 120v640h-60v80h458v-80h-218v-840q0 -33 42.5 -56.5t97.5 -23.5v-40h-460v40q56 0 98 23t42 57v130z" />
    <glyph glyph-name="uni0926" unicode="&#x926;" horiz-adv-x="1044" 
d="M446 40q-161 0 -275.5 107.5t-114.5 256.5q0 151 140 258.5t340 107.5h160v190h-702v80h1120v-80h-238v-260h-340q-123 0 -211.5 -83t-88.5 -203q0 -117 88.5 -200.5t211.5 -83.5q64 0 126.5 25t123.5 75q10 56 10 70q0 153 -40 200h190q30 -55 30 -160
q0 -139 -69.5 -259t-190.5 -191l-30 30q63 76 90 240q-48 -57 -136 -88.5t-194 -31.5zM768 800z" />
    <glyph glyph-name="uni0927" unicode="&#x927;" horiz-adv-x="1136" 
d="M808 240q-81 -80 -176 -120t-204 -40q-143 0 -246.5 82.5t-103.5 197.5q0 97 62 170.5t158 89.5v10q-90 16 -150 74t-60 126q0 97 81.5 163.5t198.5 66.5q99 0 164.5 -52t65.5 -128q0 -46 -31.5 -78t-78.5 -32q-45 0 -77.5 25.5t-32.5 64.5q0 37 29.5 63.5t70.5 26.5
q28 0 40 -10q0 27 -27.5 43.5t-62.5 16.5q-63 0 -106.5 -46.5t-43.5 -113.5q0 -72 54 -126t126 -54h60v-60h-60q-73 0 -126.5 -62.5t-53.5 -147.5t67.5 -147.5t162.5 -62.5q84 0 163.5 37t136.5 103v640h-120v80h518v-80h-218v-840q0 -33 42.5 -56.5t97.5 -23.5v-40h-460v40
q56 0 98 23t42 57v120z" />
    <glyph glyph-name="uni0928" unicode="&#x928;" horiz-adv-x="1282" 
d="M434 140q82 0 141 81t59 199t-58.5 199t-141.5 81q-82 0 -141 -83t-59 -197q0 -115 59.5 -197.5t140.5 -82.5zM954 540q-60 49 -135 81.5t-165 48.5q76 -35 118 -102t42 -148q0 -141 -110.5 -240.5t-269.5 -99.5q-157 0 -268.5 100.5t-111.5 239.5t111.5 239.5
t268.5 100.5q178 0 308 -35t212 -105v340h-960v80h1358v-80h-218v-840q0 -33 42.5 -56.5t97.5 -23.5v-40h-460v40q56 0 98 23t42 57v420zM518 800z" />
    <glyph glyph-name="uni0929" unicode="&#x929;" horiz-adv-x="1282" 
d="M434 220q83 0 141.5 69.5t58.5 170.5t-58.5 170.5t-141.5 69.5q-81 0 -140.5 -70.5t-59.5 -169.5t59.5 -169.5t140.5 -70.5zM954 540q-60 49 -135 81.5t-165 48.5q77 -35 118.5 -90.5t41.5 -119.5q0 -125 -110.5 -212.5t-269.5 -87.5q-157 0 -268.5 88.5t-111.5 211.5
t111.5 211.5t268.5 88.5q178 0 308 -35t212 -105v340h-960v80h1358v-80h-218v-840q0 -33 42.5 -56.5t97.5 -23.5v-40h-460v40q56 0 98 23t42 57v420zM430 -110q-36 0 -62 26t-26 62t26 62t62 26t62 -26t26 -62t-26 -62t-62 -26zM518 800z" />
    <glyph glyph-name="uni092A" unicode="&#x92a;" horiz-adv-x="1004" 
d="M676 960h-400v-500q0 -80 60 -140t140 -60q81 0 140.5 58.5t59.5 141.5v500zM676 290q-45 -65 -110 -97.5t-150 -32.5q-133 0 -226.5 93.5t-93.5 226.5v480h-102v80h1080v-80h-218v-840q0 -33 42.5 -56.5t97.5 -23.5v-40h-460v40q56 0 98 23t42 57v170z" />
    <glyph glyph-name="uni092B" unicode="&#x92b;" horiz-adv-x="1342" 
d="M580 960h-300v-540q0 -62 44 -106t106 -44q63 0 106.5 44t43.5 106v540zM580 260q-98 -80 -220 -80q-107 0 -183.5 68.5t-76.5 171.5v540h-106v80h1418v-80h-652v-180q68 60 180 60q156 0 248 -92t92 -248q0 -155 -93.5 -247.5t-246.5 -92.5q-92 0 -140 40l10 40
q38 -20 90 -20q74 0 127 81t53 199q0 115 -52 192.5t-128 77.5q-80 0 -140 -70v-580q0 -33 42.5 -56.5t97.5 -23.5v-40h-460v40q56 0 98 23t42 57v140z" />
    <glyph glyph-name="uni092C" unicode="&#x92c;" horiz-adv-x="1026" 
d="M608 230l-300 450q-70 -59 -70 -210q0 -125 82.5 -199.5t170.5 -74.5q59 0 117 34zM698 720q-79 54 -164 54q-93 0 -166 -44l310 -470l20 10v450zM698 220q-122 -100 -260 -100q-156 0 -268 106t-112 254q0 149 110.5 254.5t269.5 105.5q163 0 260 -80v200h-704v80h1102
v-80h-218v-840q0 -33 42.5 -56.5t97.5 -23.5v-40h-460v40q56 0 98 23t42 57v100z" />
    <glyph glyph-name="uni092D" unicode="&#x92d;" horiz-adv-x="1188" 
d="M460 840q0 75 -32 127.5t-78 52.5t-78 -52.5t-32 -127.5q0 -65 32 -112.5t78 -47.5t78 47.5t32 112.5zM460 500h-60q-63 0 -101.5 -54.5t-38.5 -137.5q0 -85 28 -141.5t72 -56.5q42 0 71 46t29 114v230zM860 500h-220v-160q0 -119 -82.5 -204.5t-197.5 -85.5t-197.5 79.5
t-82.5 190.5q0 103 76.5 171.5t183.5 68.5h120v120q-52 -60 -140 -60q-95 0 -162.5 64.5t-67.5 155.5q0 99 79.5 169.5t190.5 70.5q115 0 197.5 -75t82.5 -185v-260h220v400h-180v80h578v-80h-218v-840q0 -33 42.5 -56.5t97.5 -23.5v-40h-460v40q56 0 98 23t42 57v380z" />
    <glyph glyph-name="uni092E" unicode="&#x92e;" horiz-adv-x="1174" 
d="M1244 960h-218v-840q0 -33 42.5 -56.5t97.5 -23.5v-40h-460v40q56 0 98 23t42 57v390h-260v-150q0 -113 -84 -201.5t-196 -88.5q-111 0 -185.5 73.5t-74.5 182.5q0 117 82 185.5t218 68.5h60v380h-412v80h1250v-80zM846 580v380h-260v-380h260zM406 280v232h-70
q-50 0 -80 -57t-30 -141q0 -184 80 -184q43 0 71.5 45t28.5 105z" />
    <glyph glyph-name="uni092F" unicode="&#x92f;" horiz-adv-x="1140" 
d="M812 960h-360q83 -23 131.5 -69.5t48.5 -100.5q0 -87 -78.5 -148.5t-191.5 -61.5h-140q0 -164 98 -262t262 -98q124 0 230 90v650zM812 240q-121 -100 -320 -100q-206 0 -325 128.5t-119 345.5q0 46 4 66q85 -40 170 -40q93 0 156.5 42.5t63.5 117.5q0 55 -32.5 95
t-97.5 65h-318v80h1216v-80h-218v-840q0 -33 42.5 -56.5t97.5 -23.5v-40h-460v40q56 0 98 23t42 57v120z" />
    <glyph glyph-name="uni0930" unicode="&#x930;" horiz-adv-x="856" 
d="M926 960h-474q135 -24 222.5 -116.5t87.5 -213.5q0 -136 -133 -233t-317 -97q79 -94 158.5 -147t141.5 -53q43 0 86.5 29t73.5 81l40 -30q-30 -83 -108 -131.5t-172 -48.5q-73 0 -148.5 32t-131.5 88q-96 96 -156 146t-84 54v40q24 -1 99 -11q64 -9 101 -9
q133 0 226.5 93.5t93.5 226.5q0 111 -73.5 195.5t-186.5 104.5h-278v80h932v-80z" />
    <glyph glyph-name="uni0931" unicode="&#x931;" horiz-adv-x="856" 
d="M926 960h-474q135 -24 222.5 -116.5t87.5 -213.5q0 -136 -133 -233t-317 -97q79 -94 158.5 -147t141.5 -53q43 0 86.5 29t73.5 81l40 -30q-30 -83 -108 -131.5t-172 -48.5q-73 0 -148.5 32t-131.5 88q-96 96 -156 146t-84 54v40q24 -1 99 -11q64 -9 101 -9
q133 0 226.5 93.5t93.5 226.5q0 111 -73.5 195.5t-186.5 104.5h-278v80h932v-80zM150 -139q-36 0 -62 26t-26 62t26 62t62 26t62 -26t26 -62t-26 -62t-62 -26z" />
    <glyph glyph-name="uni0932" unicode="&#x932;" horiz-adv-x="1314" 
d="M986 720q-16 3 -31 3q-81 0 -135 -75t-54 -168h-50q0 99 -63 169.5t-157 70.5q-104 0 -177 -95t-73 -225q0 -131 73.5 -225.5t176.5 -94.5q72 0 120 40l30 -30q-59 -70 -210 -70q-153 0 -261.5 117.5t-108.5 282.5q0 167 107.5 283.5t262.5 116.5q101 0 185.5 -51.5
t124.5 -138.5q24 65 88 108.5t152 51.5v170h-992v80h1390v-80h-218v-840q0 -33 42.5 -56.5t97.5 -23.5v-40h-460v40q56 0 98 23t42 57v600z" />
    <glyph glyph-name="uni0933" unicode="&#x933;" horiz-adv-x="1318" 
d="M606 644q-66 116 -158 116q-82 0 -141 -106t-59 -254q0 -141 54 -245.5t126 -104.5q58 0 99 106t41 264q0 140 38 224zM688 166q70 -96 180 -96q82 0 141 96t59 234q0 153 -52.5 256.5t-127.5 103.5q-65 0 -102.5 -104.5t-37.5 -253.5q0 -151 -60 -236zM652 112
q-71 -112 -224 -112q-148 0 -254 124t-106 296q0 167 99.5 283.5t240.5 116.5q155 0 226 -124q56 94 174 124v140h-814v80h1394v-80h-400v-140q120 -43 190 -152t70 -248q0 -173 -100.5 -296.5t-269.5 -123.5q-142 0 -226 112zM902 830z" />
    <glyph glyph-name="uni0934" unicode="&#x934;" horiz-adv-x="1318" 
d="M606 644q-66 116 -158 116q-82 0 -141 -106t-59 -254q0 -141 54 -245.5t126 -104.5q58 0 99 106t41 264q0 140 38 224zM688 166q70 -96 180 -96q82 0 141 96t59 234q0 153 -52.5 256.5t-127.5 103.5q-65 0 -102.5 -104.5t-37.5 -253.5q0 -151 -60 -236zM652 112
q-71 -112 -224 -112q-148 0 -254 124t-106 296q0 167 99.5 283.5t240.5 116.5q155 0 226 -124q56 94 174 124v140h-814v80h1394v-80h-400v-140q120 -43 190 -152t70 -248q0 -173 -100.5 -296.5t-269.5 -123.5q-142 0 -226 112zM902 830zM629 -218q-36 0 -62 26t-26 62t26 62
t62 26t62 -26t26 -62t-26 -62t-62 -26z" />
    <glyph glyph-name="uni0935" unicode="&#x935;" horiz-adv-x="1026" 
d="M698 300v390q-83 100 -220 100q-105 0 -172.5 -84.5t-67.5 -205.5q0 -118 69 -204t171 -86q113 0 220 90zM878 960v-840q0 -33 42.5 -56.5t97.5 -23.5v-40h-460v40q56 0 98 23t42 57v110q-107 -90 -260 -90q-156 0 -268 106t-112 254q0 149 110.5 254.5t269.5 105.5
q138 0 260 -100v200h-704v80h1102v-80h-218z" />
    <glyph glyph-name="uni0936" unicode="&#x936;" horiz-adv-x="1332" 
d="M484 520q92 0 152 64t60 154q0 98 -58.5 160t-153.5 62q-92 0 -156 -63.5t-64 -156.5q0 -92 64 -156t156 -64zM684 556q-125 -106 -260 -106q-142 0 -246 86t-104 204q0 120 119 205t291 85q167 0 283.5 -131.5t116.5 -318.5q0 -183 -111.5 -311.5t-268.5 -128.5
q-72 0 -140 40q91 -115 156.5 -162.5t183.5 -47.5v-50h-120q-117 0 -197 37.5t-123 112.5q-48 84 -103 131.5t-117 58.5v40h260q77 -90 140 -90q107 0 173.5 96.5t66.5 249.5zM1402 960h-218v-840q0 -33 42.5 -56.5t97.5 -23.5v-40h-460v40q56 0 98 23t42 57v840h-180v80
h578v-80zM956 10z" />
    <glyph glyph-name="uni0937" unicode="&#x937;" horiz-adv-x="1068" 
d="M730 290l-450 620v-470q0 -100 70 -170t170 -70q131 0 210 90zM740 960h-410l410 -560v560zM740 240q-102 -120 -280 -120q-149 0 -254.5 94.5t-105.5 225.5v520h-106v80h1144v-80h-218v-840q0 -33 42.5 -56.5t97.5 -23.5v-40h-460v40q56 0 98 23t42 57v120z" />
    <glyph glyph-name="uni0938" unicode="&#x938;" horiz-adv-x="1329" 
d="M1001 510q-60 -10 -100 -10q-82 0 -158 35q-46 -110 -154 -165t-278 -55q116 -138 179 -176.5t122 -38.5q94 0 160 111l39 -31q-82 -180 -283 -180q-85 0 -159 35t-156 125q-141 163 -209 180l16 53q106 -33 185 -33q149 0 247.5 82.5t98.5 212.5q0 45 -13.5 88t-40 81.5
t-64 69t-84 49t-64.5 18.5h-291v79h1405v-79h-217v-840q0 -33 41.5 -56.5t99.5 -23.5v-41h-461v41q51 0 95 20t44 60v389zM1001 590v371h-559q153 -32 236.5 -123t83.5 -226q60 -43 139 -43q42 0 100 21z" />
    <glyph glyph-name="uni0939" unicode="&#x939;" horiz-adv-x="1006" 
d="M1076 960h-246v-230h-312q-58 0 -93 -23t-35 -57q0 -40 50 -80q56 10 110 10q185 0 292.5 -70.5t107.5 -189.5q0 -104 -83.5 -172t-196.5 -68q-107 0 -180 60v50q41 -30 110 -30t119.5 47.5t50.5 112.5q0 83 -69.5 141.5t-170.5 58.5q-120 0 -210 -67.5t-90 -172.5
q0 -123 117.5 -211.5t282.5 -88.5q219 0 320 80l-60 -140h-270q-285 0 -427.5 85t-142.5 255q0 90 69 164.5t181 105.5q-100 50 -100 130q0 58 61 99t149 41h240v160h-656v80h1082v-80z" />
    <glyph glyph-name="uni093C" unicode="&#x93c;" horiz-adv-x="0" 
d="M-856 -148q-36 0 -62 26t-26 62t26 62t62 26t62 -26t26 -62t-26 -62t-62 -26z" />
    <glyph glyph-name="uni093D" unicode="&#x93d;" horiz-adv-x="876" 
d="M32 338h200q0 -110 59.5 -190t140.5 -80q103 0 161.5 62t58.5 160q0 63 -30 116t-90 96l-300 216q-50 36 -75 76.5t-25 85.5q0 59 47.5 101.5t112.5 42.5h440v-72h-300q-43 0 -72.5 -27t-29.5 -69q0 -49 23.5 -90.5t70.5 -75.5l308 -224q50 -37 75 -82.5t25 -99.5
q0 -112 -118 -191t-282 -79t-282 96t-118 228zM532 1040z" />
    <glyph glyph-name="uni093E" unicode="&#x93e;" horiz-adv-x="476" 
d="M546 960h-218v-840q0 -33 42.5 -56.5t97.5 -23.5v-40h-460v40q56 0 98 23t42 57v840h-154v80h552v-80z" />
    <glyph glyph-name="uni093F" unicode="&#x93f;" horiz-adv-x="476" 
d="M546 960h-218v-840q0 -33 42.5 -56.5t97.5 -23.5v-40h-460v40q56 0 98 23t42 57v840h-154v80h552v-80zM1208 1060h-180q0 150 -130.5 255t-319.5 105q-129 0 -219.5 -61t-90.5 -147t60 -152h-180q-60 66 -60 152q0 109 141 186.5t349 77.5q267 0 448.5 -121.5
t181.5 -294.5z" />
    <glyph glyph-name="uni0940" unicode="&#x940;" horiz-adv-x="476" 
d="M546 960h-218v-840q0 -33 42.5 -56.5t97.5 -23.5v-40h-460v40q56 0 98 23t42 57v840h-154v80h552v-80zM328 1060h-180v58q0 128 -58.5 217t-141.5 89q-67 0 -113.5 -51.5t-46.5 -120.5q0 -97 80 -192h-180q-35 28 -57.5 78.5t-22.5 103.5q0 101 86 170.5t214 69.5
q176 0 298 -105.5t122 -258.5v-58z" />
    <glyph glyph-name="uni0941" unicode="&#x941;" horiz-adv-x="0" 
d="M-968 -150h180q8 -101 122 -170.5t268 -69.5q105 0 177.5 55.5t72.5 134.5q0 61 -22.5 100.5t-57.5 39.5q-34 0 -57 -36t-23 -84h-180q23 82 95.5 131t164.5 49q110 0 185 -58.5t75 -141.5q0 -112 -118 -191t-282 -79q-225 0 -393.5 90t-206.5 230z" />
    <glyph glyph-name="uni0942" unicode="&#x942;" horiz-adv-x="0" 
d="M372 -460h-180q0 168 -122 284t-298 116q-81 0 -140.5 -62.5t-59.5 -147.5q0 -55 23.5 -97.5t56.5 -42.5q34 0 57 40t23 100h180q-16 -87 -90 -143.5t-170 -56.5q-107 0 -183.5 59.5t-76.5 140.5q0 112 110 191t270 79q250 0 425 -134.5t175 -325.5z" />
    <glyph glyph-name="uni0943" unicode="&#x943;" horiz-adv-x="0" 
d="M-78 -480h-180q-181 0 -290.5 66.5t-109.5 173.5t109.5 173.5t290.5 66.5h180v-60h-180q-93 0 -156.5 -52.5t-63.5 -127.5q0 -73 64.5 -126.5t155.5 -53.5h180v-60z" />
    <glyph glyph-name="uni0944" unicode="&#x944;" horiz-adv-x="0" 
d="M-78 -490h-360q-77 0 -133.5 39.5t-56.5 94.5q0 31 38 64.5t102 53.5q-57 9 -98.5 42.5t-41.5 77.5q0 57 66 90.5t144 33.5h280v-56h-160q-57 0 -98.5 -26t-41.5 -62q0 -29 32.5 -50.5t77.5 -21.5h120v-56h-100q-51 0 -90.5 -24.5t-39.5 -65.5q0 -34 41.5 -58t98.5 -24
h220v-52z" />
    <glyph glyph-name="uni0945" unicode="&#x945;" horiz-adv-x="0" 
d="M192 1460q0 -133 -122.5 -226.5t-297.5 -93.5q-173 0 -296.5 94.5t-123.5 225.5h200q0 -106 62 -183t158 -77t158 77t62 183h200z" />
    <glyph glyph-name="uni0946" unicode="&#x946;" horiz-adv-x="0" 
d="M-158 1060h-160q0 76 -87 129t-209 53q-155 0 -264.5 90t-109.5 218h200q0 -103 80.5 -176.5t193.5 -73.5q138 0 247 -66t109 -174z" />
    <glyph glyph-name="uni0947" unicode="&#x947;" horiz-adv-x="0" 
d="M-108 1060h-200q-57 0 -100 38l-320 286q-26 23 -51.5 30.5t-68.5 7.5h-40v58h220q78 0 140 -58l300 -276q41 -38 100 -38h20v-48z" />
    <glyph glyph-name="uni0948" unicode="&#x948;" horiz-adv-x="0" 
d="M-28 1140h-160q-49 0 -88 48l-164 202q-41 50 -108 50h-140v60h294q62 0 104 -54l162 -206q31 -40 80 -40h20v-60zM-228 1060h-220q-57 0 -120 50l-240 190q-51 40 -100 40h-80v60h220q70 0 120 -40l252 -200q50 -40 106 -40h62v-60z" />
    <glyph glyph-name="uni0949" unicode="&#x949;" horiz-adv-x="476" 
d="M546 960h-218v-840q0 -33 42.5 -56.5t97.5 -23.5v-40h-460v40q56 0 98 23t42 57v840h-154v80h552v-80zM412 1450q0 -133 -122.5 -226.5t-297.5 -93.5q-173 0 -296.5 94.5t-123.5 225.5h200q0 -106 62 -183t158 -77t158 77t62 183h200z" />
    <glyph glyph-name="uni094A" unicode="&#x94a;" horiz-adv-x="476" 
d="M546 960h-218v-840q0 -33 42.5 -56.5t97.5 -23.5v-40h-460v40q56 0 98 23t42 57v840h-154v80h552v-80zM315 1060h-160q0 76 -87 129t-209 53q-155 0 -264.5 90t-109.5 218h200q0 -103 80.5 -176.5t193.5 -73.5q138 0 247 -66t109 -174z" />
    <glyph glyph-name="uni094B" unicode="&#x94b;" horiz-adv-x="476" 
d="M546 960h-218v-840q0 -33 42.5 -56.5t97.5 -23.5v-40h-460v40q56 0 98 23t42 57v840h-154v80h552v-80zM379 1060h-200q-57 0 -100 38l-320 286q-26 23 -51.5 30.5t-68.5 7.5h-40v58h220q78 0 140 -58l300 -276q41 -38 100 -38h20v-48z" />
    <glyph glyph-name="uni094C" unicode="&#x94c;" horiz-adv-x="476" 
d="M546 960h-218v-840q0 -33 42.5 -56.5t97.5 -23.5v-40h-460v40q56 0 98 23t42 57v840h-154v80h552v-80zM560 1140h-160q-49 0 -88 48l-164 202q-41 50 -108 50h-140v60h294q62 0 104 -54l162 -206q31 -40 80 -40h20v-60zM360 1060h-220q-57 0 -120 50l-240 190
q-51 40 -100 40h-80v60h220q70 0 120 -40l252 -200q50 -40 106 -40h62v-60z" />
    <glyph glyph-name="uni094D" unicode="&#x94d;" horiz-adv-x="0" 
d="M372 -430h-200l-440 340l-60 -40h-120l120 100h200z" />
    <glyph glyph-name="uni0950" unicode="&#x950;" horiz-adv-x="1696" 
d="M38 500h60q0 -157 97 -273.5t243 -116.5q89 0 154.5 54t65.5 136q0 97 -69.5 163.5t-170.5 66.5h-80v60h100q83 0 141.5 55.5t58.5 134.5q0 71 -58.5 120.5t-141.5 49.5q-53 0 -100.5 -25t-89.5 -75l-50 30q41 70 116 105t184 35q126 0 223 -67t97 -173
q0 -79 -51.5 -137.5t-128.5 -72.5v-10q103 -19 166.5 -90.5t63.5 -169.5q0 -125 -116.5 -212.5t-283.5 -87.5q-185 0 -307.5 149t-122.5 351zM938 1292q-36 0 -62 26t-26 62t26 62t62 26t62 -26t26 -62t-26 -62t-62 -26zM1278 1300q0 -121 -102.5 -200.5t-237.5 -79.5
t-237.5 79.5t-102.5 200.5h180q0 -91 47.5 -155.5t112.5 -64.5q66 0 113 63t47 157h180zM1038 160l20 50q56 -40 180 -40q91 0 155.5 79.5t64.5 190.5q0 106 -62 183t-158 77q-92 0 -216 -90t-184 -80v70q81 0 210 106q127 104 210 104q159 0 269.5 -107.5t110.5 -262.5
q0 -141 -102.5 -240.5t-247.5 -99.5q-143 0 -250 60z" />
    <glyph glyph-name="uni0951" unicode="&#x951;" horiz-adv-x="0" 
d="M-168 1170h-120v320h120v-320z" />
    <glyph glyph-name="uni0952" unicode="&#x952;" horiz-adv-x="0" 
d="M-158 -100h-808v80h808v-80z" />
    <glyph glyph-name="uni0953" unicode="&#x953;" horiz-adv-x="0" 
d="M-56 1164h-58l-290 282h194z" />
    <glyph glyph-name="uni0954" unicode="&#x954;" horiz-adv-x="0" 
d="M-50 1446l-290 -282h-58l154 282h194z" />
    <glyph glyph-name="uni0958" unicode="&#x958;" horiz-adv-x="1576" 
d="M698 300v390q-83 100 -220 100q-105 0 -172.5 -84.5t-67.5 -205.5q0 -118 69 -204t171 -86q113 0 220 90zM878 700v-580q0 -33 42.5 -56.5t97.5 -23.5v-40h-460v40q56 0 98 23t42 57v110q-107 -90 -260 -90q-156 0 -268 106t-112 254q0 149 110.5 254.5t269.5 105.5
q138 0 260 -100v200h-704v80h1652v-80h-768v-180q98 80 260 80q160 0 270 -104t110 -256q0 -151 -111.5 -255.5t-268.5 -104.5q-119 0 -220 80l20 50q69 -60 160 -60q99 0 169.5 85.5t70.5 204.5q0 121 -69.5 205.5t-170.5 84.5q-143 0 -220 -90zM432 -268q-36 0 -62 26
t-26 62t26 62t62 26t62 -26t26 -62t-26 -62t-62 -26z" />
    <glyph glyph-name="uni0959" unicode="&#x959;" horiz-adv-x="1720" 
d="M1392 300v380q-49 130 -220 130q-109 0 -184.5 -90.5t-75.5 -219.5q0 -135 76.5 -232.5t183.5 -97.5q66 0 126 35t94 95zM1392 210q-51 -51 -121 -80.5t-139 -29.5q-130 0 -220 50q-59 -71 -144.5 -110.5t-175.5 -39.5q-170 0 -300 130q-210 210 -280 210l20 60
q110 -40 180 -40q128 0 214 101.5t86 238.5q0 85 -54 156t-146 104h-318v80h1796v-80h-218v-840q0 -33 42.5 -56.5t97.5 -23.5v-40h-460v40q56 0 98 23t42 57v90zM1392 780v180h-960q113 -30 186.5 -112.5t73.5 -187.5q0 -145 -105.5 -247.5t-254.5 -102.5
q83 -98 184.5 -154t195.5 -56q62 0 160 80q-65 55 -102.5 141t-37.5 179q0 157 116.5 268.5t283.5 111.5q138 0 260 -100zM135 -111q-36 0 -62 26t-26 62t26 62t62 26t62 -26t26 -62t-26 -62t-62 -26z" />
    <glyph glyph-name="uni095A" unicode="&#x95a;" horiz-adv-x="1262" 
d="M344 620q-50 0 -85 -54t-35 -126t35.5 -126t84.5 -54q50 0 85 52t35 128q0 77 -34 128.5t-86 51.5zM934 960h-510q152 -27 256 -127t104 -233q0 -167 -129.5 -283.5t-310.5 -116.5q-123 0 -211.5 71.5t-88.5 172.5t79.5 173.5t190.5 72.5q101 0 170.5 -72.5t69.5 -177.5
h10q40 49 40 160q0 134 -97.5 234t-242.5 126h-270v80h1338v-80h-218v-840q0 -33 42.5 -56.5t97.5 -23.5v-40h-460v40q56 0 98 23t42 57v840zM842 10zM372 -198q-36 0 -62 26t-26 62t26 62t62 26t62 -26t26 -62t-26 -62t-62 -26z" />
    <glyph glyph-name="uni095B" unicode="&#x95b;" horiz-adv-x="1334" 
d="M1006 661h-340q93 -34 146.5 -109.5t53.5 -171.5q0 -141 -102.5 -240.5t-247.5 -99.5q-194 0 -332 185.5t-138 444.5h60q17 -191 116 -335.5t244 -144.5q93 0 156.5 64t63.5 156q0 105 -69.5 178t-170.5 73h-40v60h600v239h-1012v80h1410v-80h-218v-840q0 -33 42.5 -56.5
t97.5 -23.5v-40h-460v40q56 0 98 23t42 57v541zM523 -241q-36 0 -62 26t-26 62t26 62t62 26t62 -26t26 -62t-26 -62t-62 -26z" />
    <glyph glyph-name="uni095C" unicode="&#x95c;" horiz-adv-x="1130" 
d="M1200 960h-264v-220h-340q-90 0 -135 -25t-45 -75t50 -75t150 -25h120q117 0 198.5 -66.5t81.5 -163.5q0 -128 -130 -219t-310 -91q-215 0 -367.5 160t-172.5 390l60 10q18 -198 160 -334t330 -136q106 0 178 60.5t72 149.5q0 72 -48.5 121t-123.5 49h-158
q-118 0 -194 52t-76 138q0 73 74.5 116.5t195.5 43.5h250v140h-762v80h1206v-80zM572 -269q-36 0 -62 26t-26 62t26 62t62 26t62 -26t26 -62t-26 -62t-62 -26z" />
    <glyph glyph-name="uni095D" unicode="&#x95d;" horiz-adv-x="1152" 
d="M1222 960h-284v-220h-280q-173 0 -296.5 -100.5t-123.5 -239.5q0 -137 86 -238.5t214 -101.5h80q-55 39 -87.5 110.5t-32.5 159.5q0 121 87.5 205.5t212.5 84.5t212.5 -87.5t87.5 -212.5q0 -134 -100.5 -227t-239.5 -93h-220q-196 0 -338 118t-142 282q0 167 145.5 283.5
t354.5 116.5h200v160h-764v80h1228v-80zM758 540q-75 0 -127.5 -68t-52.5 -162q0 -102 53.5 -176t126.5 -74q66 0 113 72t47 178q0 99 -46 164.5t-114 65.5zM602 -268q-36 0 -62 26t-26 62t26 62t62 26t62 -26t26 -62t-26 -62t-62 -26z" />
    <glyph glyph-name="uni095E" unicode="&#x95e;" horiz-adv-x="1342" 
d="M580 960h-300v-540q0 -62 44 -106t106 -44q63 0 106.5 44t43.5 106v540zM580 260q-98 -80 -220 -80q-107 0 -183.5 68.5t-76.5 171.5v540h-106v80h1418v-80h-652v-180q68 60 180 60q156 0 248 -92t92 -248q0 -155 -93.5 -247.5t-246.5 -92.5q-92 0 -140 40l10 40
q38 -20 90 -20q74 0 127 81t53 199q0 115 -52 192.5t-128 77.5q-80 0 -140 -70v-580q0 -33 42.5 -56.5t97.5 -23.5v-40h-460v40q56 0 98 23t42 57v140zM352 -268q-36 0 -62 26t-26 62t26 62t62 26t62 -26t26 -62t-26 -62t-62 -26z" />
    <glyph glyph-name="uni095F" unicode="&#x95f;" horiz-adv-x="1140" 
d="M812 960h-360q83 -23 131.5 -69.5t48.5 -100.5q0 -87 -78.5 -148.5t-191.5 -61.5h-140q0 -164 98 -262t262 -98q124 0 230 90v650zM812 240q-121 -100 -320 -100q-206 0 -325 128.5t-119 345.5q0 46 4 66q85 -40 170 -40q93 0 156.5 42.5t63.5 117.5q0 55 -32.5 95
t-97.5 65h-318v80h1216v-80h-218v-840q0 -33 42.5 -56.5t97.5 -23.5v-40h-460v40q56 0 98 23t42 57v120zM354 -120q-36 0 -62 26t-26 62t26 62t62 26t62 -26t26 -62t-26 -62t-62 -26z" />
    <glyph glyph-name="uni0960" unicode="&#x960;" horiz-adv-x="1456" 
d="M1526 960h-724v-480l300 170q0 60 35 105t85 45q36 0 58 -22t22 -58q0 -25 -32.5 -55t-97.5 -65q0 -50 49 -95t121 -45l10 -70q-59 0 -99.5 -54t-40.5 -126q0 -74 48 -128t112 -54q36 0 60 12l20 -60q-64 -24 -132 -24q-127 0 -217.5 71.5t-90.5 172.5q0 81 58.5 148.5
t151.5 91.5q-98 60 -112 140l-308 -170v-270q0 -40 30 -70t70 -30v-40h-380v40q41 0 70.5 28.5t29.5 71.5v210l-530 -270l-30 60l400 200l-74 164q-53 118 -97 177t-79 59q-82 0 -150 -60l-40 50q107 90 220 90q102 0 182 -68t138 -204l50 -118l10 10v520h-628v80h1532v-80z
" />
    <glyph glyph-name="uni0961" unicode="&#x961;" horiz-adv-x="1360" 
d="M1126 480q0 90 -56 160t-134 70q-87 0 -148.5 -66.5t-61.5 -163.5h-56q0 98 -58 164t-144 66q-92 0 -151 -85.5t-59 -194.5q0 -108 51 -194t135 -86q60 0 112 50l28 -40q-65 -90 -176 -90q-143 0 -245.5 103.5t-102.5 246.5q0 157 100.5 268.5t245.5 111.5q101 0 180 -48
t112 -132q43 118 192 160v180h-896v80h1436v-80h-382v-170q113 -22 184.5 -108.5t71.5 -201.5q0 -143 -86.5 -246.5t-205.5 -103.5q-75 0 -123.5 -29t-48.5 -71q0 -33 32.5 -56.5t77.5 -23.5h120v-60h-100q-56 0 -93 -29t-37 -71q0 -38 41.5 -64t98.5 -26h220v-60h-240
q-127 0 -218.5 44.5t-91.5 105.5q0 82 140 130q-57 9 -98.5 42.5t-41.5 77.5q0 68 74.5 109t165.5 41q97 0 166.5 84.5t69.5 205.5z" />
    <glyph glyph-name="uni0962" unicode="&#x962;" horiz-adv-x="0" 
d="M84 -236q0 74 -40 124t-100 50q-63 0 -107.5 -49.5t-44.5 -118.5h-40q0 72 -42 120t-106 48q-69 0 -115.5 -60t-46.5 -142q0 -81 39.5 -143.5t104.5 -62.5q46 0 82 36l20 -28q-21 -31 -56.5 -48.5t-69.5 -17.5q-104 0 -180 78t-76 186q0 111 73 189.5t181 78.5
q159 0 212 -132q44 132 220 132q98 0 164 -68t66 -166q0 -101 -68.5 -170.5t-167.5 -69.5q-47 0 -82.5 -36.5t-35.5 -87.5q0 -52 48 -92t114 -40h108v-44h-108q-124 0 -208 45.5t-84 130.5q0 69 54.5 118.5t133.5 49.5q69 0 113.5 57t44.5 133z" />
    <glyph glyph-name="uni0963" unicode="&#x963;" horiz-adv-x="0" 
d="M84 -236q0 74 -40 124t-100 50q-63 0 -107.5 -49.5t-44.5 -118.5h-40q0 72 -42 120t-106 48q-69 0 -115.5 -60t-46.5 -142q0 -81 39.5 -143.5t104.5 -62.5q46 0 82 36l20 -28q-21 -31 -56.5 -48.5t-69.5 -17.5q-104 0 -180 78t-76 186q0 111 73 189.5t181 78.5
q159 0 212 -132q44 132 220 132q98 0 164 -68t66 -170q0 -116 -63.5 -189t-156.5 -75q-53 -1 -90.5 -22.5t-37.5 -49.5q0 -62 82 -62h88v-44h-74q-37 0 -66.5 -20.5t-29.5 -53.5q0 -25 30.5 -44.5t71.5 -19.5h162v-44h-246q-63 0 -108.5 32t-45.5 76q0 26 26.5 52.5
t75.5 43.5q-41 8 -71.5 30t-30.5 44q0 52 55.5 88t132.5 36q66 0 112 62t46 158z" />
    <glyph glyph-name="uni0964" unicode="&#x964;" horiz-adv-x="480" 
d="M340 -100h-200v1200h200v-1200z" />
    <glyph glyph-name="uni0965" unicode="&#x965;" horiz-adv-x="920" 
d="M780 -100h-200v1200h200v-1200zM340 -100h-200v1200h200v-1200z" />
    <glyph glyph-name="uni0966" unicode="&#x966;" horiz-adv-x="1000" 
d="M500 120q-164 0 -282 112t-118 268q0 157 116.5 268.5t283.5 111.5q168 0 284 -110t116 -270q0 -159 -117.5 -269.5t-282.5 -110.5zM500 800q-82 0 -141 -89t-59 -211q0 -123 59.5 -211.5t140.5 -88.5q82 0 141 87t59 213t-58.5 213t-141.5 87zM580 -100zM580 1100z" />
    <glyph glyph-name="uni0967" unicode="&#x967;" horiz-adv-x="1000" 
d="M420 420l220 -240q50 -55 75 -105t25 -95t-20 -60h-200q20 15 20 60q0 48 -10 83t-30 57l-280 300q102 48 172 98t108 102q-117 0 -198.5 81.5t-81.5 198.5q0 103 76.5 171.5t183.5 68.5q123 0 211.5 -81t88.5 -199q0 -141 -98 -260t-262 -180zM600 860q0 95 -35 157.5
t-85 62.5q-34 0 -57 -54.5t-23 -125.5q0 -79 36 -146t94 -94q35 41 52.5 91t17.5 109zM250 -100zM250 1100z" />
    <glyph glyph-name="uni0968" unicode="&#x968;" horiz-adv-x="1000" 
d="M460 330q39 -104 98 -172t122 -68q68 0 120 60l40 -50q-83 -100 -220 -100q-88 0 -174.5 59t-145.5 161q-94 163 -200 200l20 40q49 0 130 -34q87 -36 130 -36q138 0 239 79t101 191q0 114 -84 192t-206 78q-154 0 -300 -120l-30 50q153 180 360 180q184 0 312 -110
t128 -270q0 -137 -130 -233.5t-310 -96.5zM580 -100zM580 1100z" />
    <glyph glyph-name="uni0969" unicode="&#x969;" horiz-adv-x="1000" 
d="M900 -40q-45 -65 -120.5 -102.5t-159.5 -37.5q-87 0 -177 55t-183 165q-71 84 -160 100l20 40q47 0 136 -30t134 -30q126 0 218 53t92 127q0 80 -99 134.5t-221 65.5h-80v80h80q81 0 200.5 49t119.5 121q0 76 -73.5 123t-166.5 47q-44 0 -146.5 -26.5t-173.5 -83.5
l-40 50q181 180 390 180q158 0 284 -77.5t126 -202.5q0 -96 -106 -154t-234 -58v-14q142 0 241 -70.5t99 -173.5q0 -104 -130 -177t-310 -73q74 -60 139 -90t121 -30q71 0 140 80zM230 -100zM230 1100z" />
    <glyph glyph-name="uni096A" unicode="&#x96a;" horiz-adv-x="998" 
d="M904 980q0 -195 -85.5 -343t-224.5 -197q87 -16 143.5 -71.5t56.5 -128.5q0 -105 -90 -172.5t-210 -67.5t-210 67.5t-90 172.5q0 83 51.5 150t138.5 100q-135 50 -212.5 185.5t-77.5 304.5h180q0 -168 46.5 -291.5t123.5 -168.5q121 43 195.5 170.5t74.5 289.5h190z
M534 410q-72 -41 -116 -88t-44 -82v-40q0 -64 35.5 -112t84.5 -48q54 0 92 59.5t38 140.5q0 119 -90 170zM580 -100zM580 1100z" />
    <glyph glyph-name="uni096B" unicode="&#x96b;" horiz-adv-x="1000" 
d="M730 360q60 -104 60 -190q0 -71 -66.5 -120.5t-163.5 -49.5h-160v50h100q51 0 85.5 31.5t34.5 78.5q0 68 -30 150q-53 -30 -100 -30q-177 0 -303.5 105.5t-126.5 254.5v400h180v-400q0 -121 74 -210.5t186 -89.5q27 0 60 20q-80 67 -120 162t-40 218t81 211.5t199 88.5
q109 0 184.5 -90.5t75.5 -219.5q0 -116 -56.5 -215.5t-153.5 -154.5zM680 440q50 62 75 137t25 163q0 85 -28.5 142.5t-71.5 57.5q-42 0 -71 -60.5t-29 -139.5q0 -88 25 -163t75 -137zM580 -100zM580 1100z" />
    <glyph glyph-name="uni096C" unicode="&#x96c;" horiz-adv-x="1000" 
d="M940 250q-32 -187 -198.5 -308.5t-391.5 -121.5v60q105 0 201.5 62.5t132.5 127.5q-17 -11 -83.5 -30.5t-120.5 -19.5q-172 0 -296 79.5t-124 190.5q0 88 84.5 158.5t217.5 95.5l-2 12q-100 17 -170 82t-70 152q0 104 108.5 172t251.5 68q225 0 370 -120l-40 -50
q-83 70 -230 70q-110 0 -185 -53t-75 -127q0 -73 76.5 -126.5t183.5 -53.5h80v-80h-100q-149 0 -224.5 -57.5t-75.5 -142.5q0 -90 71.5 -150t168.5 -60q120 0 210 50q12 22 30 120h200zM200 -100zM200 1100z" />
    <glyph glyph-name="uni096D" unicode="&#x96d;" horiz-adv-x="1000" 
d="M950 400q0 -167 -111.5 -283.5t-268.5 -116.5h-40q-164 0 -282 118t-118 282v490q0 24 -18 42t-42 18h-20v90h100q68 0 114 -57.5t46 -142.5v-440q0 -133 73 -236.5t187 -103.5q99 0 159.5 105t60.5 235h-140q-80 0 -140 60t-60 140v200q0 99 59.5 169.5t140.5 70.5h100
q83 0 141.5 -69.5t58.5 -170.5v-400zM770 520v360q0 24 -18 42t-42 18h-20q-24 0 -42 -18t-18 -42v-360q0 -24 18 -42t42 -18h20q24 0 42 18t18 42zM580 -100zM580 1100z" />
    <glyph glyph-name="uni096E" unicode="&#x96e;" horiz-adv-x="1000" 
d="M900 300q0 -125 -116.5 -212.5t-283.5 -87.5q-165 0 -282.5 88.5t-117.5 211.5q0 94 70.5 192t199.5 178q123 76 196.5 176t73.5 194h180q0 -94 -73.5 -194t-196.5 -176q-129 -80 -199.5 -178t-70.5 -192q0 -99 63 -169.5t157 -70.5t157 70.5t63 169.5v60h180v-60z
M580 -100zM580 1100z" />
    <glyph glyph-name="uni096F" unicode="&#x96f;" horiz-adv-x="998" 
d="M514 410q153 -72 236.5 -142.5t83.5 -127.5q0 -69 -89 -109.5t-191 -40.5q-119 0 -204.5 44.5t-85.5 105.5h160q0 -40 36 -70t84 -30q49 0 84.5 28.5t35.5 71.5q0 36 -62.5 83.5t-187.5 106.5q-137 64 -218.5 170.5t-81.5 219.5q0 139 117 229.5t273 90.5q160 0 270 -92
t110 -224q0 -136 -110.5 -225t-259.5 -89zM504 960q-95 0 -162.5 -70.5t-67.5 -169.5q0 -102 68 -176t162 -74q91 0 155.5 73.5t64.5 176.5q0 99 -63 169.5t-157 70.5zM580 -100zM580 1100z" />
    <glyph glyph-name="uni0970" unicode="&#x970;" horiz-adv-x="928" 
d="M464 -2q-132 0 -228 67.5t-96 160.5q0 94 95.5 160t228.5 66q135 0 229.5 -65.5t94.5 -160.5q0 -94 -96 -161t-228 -67zM464 388q-69 0 -115.5 -47.5t-46.5 -114.5t47.5 -115.5t114.5 -48.5q69 0 115.5 47.5t46.5 116.5q0 70 -46 116t-116 46z" />
    <glyph glyph-name="uni200C" unicode="&#x200c;" horiz-adv-x="0" 
d="M90 -490h-90v1990h90v-1990z" />
    <glyph glyph-name="uni200D" unicode="&#x200d;" horiz-adv-x="0" 
d="M255 1112l-49 -49l-134 136v-1691h-72v1691l-134 -136l-49 49l171 169l-171 168l49 49l170 -171l170 171l49 -49l-171 -168z" />
    <glyph glyph-name="endash" unicode="&#x2013;" 
d="M838 365h-852v58h852v-58z" />
    <glyph glyph-name="emdash" unicode="&#x2014;" horiz-adv-x="1649" 
d="M1663 365h-1678v59h1678v-59z" />
    <glyph glyph-name="quoteleft" unicode="&#x2018;" horiz-adv-x="549" 
d="M357 1117v-35q-82 -50 -111 -93q-22 -31 -22 -74q0 -25 9 -38q9 -12 21 -12q8 0 23 6q22 7 35 7q33 0 57.5 -24t24.5 -60q0 -41 -25 -64q-34 -30 -80 -30q-55 0 -97.5 45.5t-42.5 113.5q0 95 71 173q47 52 137 85z" />
    <glyph glyph-name="quoteright" unicode="&#x2019;" horiz-adv-x="549" 
d="M192 700v37q83 49 112 92q21 31 21 73q0 25 -9 37q-9 13 -21 13q-8 0 -23 -6q-21 -7 -35 -7q-32 0 -57 24t-25 60q0 40 25 63q34 31 81 31q54 0 97 -45.5t43 -113.5q0 -95 -72 -173q-47 -52 -137 -85z" />
    <glyph glyph-name="quotedblleft" unicode="&#x201c;" horiz-adv-x="732" 
d="M262 1117v-33q-70 -37 -101 -77.5t-31 -87.5q0 -29 8 -39q8 -11 18 -11q11 0 28.5 6t32.5 6q33 0 57.5 -24.5t24.5 -60.5q0 -38 -30 -66t-74 -28q-54 0 -97.5 46.5t-43.5 115.5q0 80 53.5 150t154.5 103zM646 1114v-30q-81 -47 -106.5 -84t-25.5 -87q0 -23 8 -34
q9 -11 19 -11q9 0 26.5 6.5t35.5 6.5q33 0 57.5 -24t24.5 -58q0 -40 -31 -69t-76 -29q-53 0 -95.5 46t-42.5 114q0 85 53.5 154.5t152.5 98.5z" />
    <glyph glyph-name="quotedblright" unicode="&#x201d;" horiz-adv-x="732" 
d="M93 702v33q81 46 106.5 83.5t25.5 86.5q0 23 -8 34q-9 11 -20 11q-8 0 -26 -6q-17 -7 -35 -7q-34 0 -58 24.5t-24 58.5q0 39 31 68t75 29q53 0 96 -46t43 -116q0 -84 -54 -154t-152 -99zM477 702v33q70 37 101 77.5t31 87.5q0 29 -8 40q-9 10 -18 10q-11 0 -28 -6
q-19 -7 -33 -7q-33 0 -57.5 25t-24.5 60q0 39 30 67t73 28q55 0 98.5 -47t43.5 -116q0 -80 -53.5 -149.5t-154.5 -102.5z" />
    <glyph glyph-name="ellipsis" unicode="&#x2026;" horiz-adv-x="1649" 
d="M275 156q37 0 63 -26t26 -63t-26 -63.5t-63 -26.5q-38 0 -64 26.5t-26 63.5q0 38 26 63.5t64 25.5zM824 156q37 0 63.5 -26t26.5 -63t-26.5 -63.5t-63.5 -26.5t-63 26.5t-26 63.5q0 38 26 63.5t63 25.5zM1374 156q37 0 63 -26t26 -63t-26 -63.5t-63 -26.5t-63 26.5
t-26 63.5q0 38 25.5 63.5t63.5 25.5z" />
    <glyph glyph-name="minus" unicode="&#x2212;" horiz-adv-x="930" 
d="M30 515v66h868v-66h-868z" />
    <glyph glyph-name="uni25CC" unicode="&#x25cc;" horiz-adv-x="1360" 
d="M680 916q-28 0 -50 22t-22 50q0 29 20.5 50.5t51.5 21.5q32 0 52 -20t20 -52q0 -31 -21.5 -51.5t-50.5 -20.5zM914 854q-28 0 -50 22t-22 50q0 29 20.5 50.5t51.5 21.5q32 0 52 -20t20 -52q0 -31 -21.5 -51.5t-50.5 -20.5zM446 854q-28 0 -50 22t-22 50q0 29 20.5 50.5
t51.5 21.5q32 0 52 -20t20 -52q0 -31 -21.5 -51.5t-50.5 -20.5zM1086 682q-28 0 -50 22t-22 50q0 29 20.5 50.5t51.5 21.5q32 0 52 -20t20 -52q0 -31 -21.5 -51.5t-50.5 -20.5zM276 682q-28 0 -50 22t-22 50q0 29 20.5 50.5t51.5 21.5q32 0 52 -20t20 -52q0 -31 -21.5 -51.5
t-50.5 -20.5zM1148 448q-28 0 -50 22t-22 50q0 29 20.5 50.5t51.5 21.5q32 0 52 -20t20 -52q0 -31 -21.5 -51.5t-50.5 -20.5zM212 448q-28 0 -50 22t-22 50q0 29 20.5 50.5t51.5 21.5q32 0 52 -20t20 -52q0 -31 -21.5 -51.5t-50.5 -20.5zM1086 214q-28 0 -50 22t-22 50
q0 29 20.5 50.5t51.5 21.5q32 0 52 -20t20 -52q0 -31 -21.5 -51.5t-50.5 -20.5zM276 214q-28 0 -50 22t-22 50q0 29 20.5 50.5t51.5 21.5q32 0 52 -20t20 -52q0 -31 -21.5 -51.5t-50.5 -20.5zM914 42q-29 0 -50.5 22.5t-21.5 51.5t20.5 50.5t51.5 21.5q32 0 52 -20t20 -52
q0 -31 -20.5 -52.5t-51.5 -21.5zM446 42q-29 0 -50.5 22.5t-21.5 51.5t20.5 50.5t51.5 21.5q32 0 52 -20t20 -52q0 -31 -20.5 -52.5t-51.5 -21.5zM680 -20q-28 0 -50 22t-22 50q0 29 20.5 50.5t51.5 21.5q32 0 52 -20t20 -52q0 -31 -21.5 -51.5t-50.5 -20.5z" />
    <glyph glyph-name="uni09470902" horiz-adv-x="0" 
d="M-108 1060h-200q-57 0 -100 38l-320 286q-26 23 -51.5 30.5t-68.5 7.5h-40v58h220q77 0 140 -58l300 -276q41 -38 100 -38h20v-48zM-168 1296q-36 0 -62 26t-26 62t26 62t62 26t62 -26t26 -62t-26 -62t-62 -26z" />
    <glyph glyph-name="uni09470930094D" horiz-adv-x="0" 
d="M-58 1410h-80q-57 0 -98.5 -44.5t-41.5 -105.5q0 -62 43.5 -106t106.5 -44v-50h-180q-79 0 -120 40l-400 280q-60 60 -120 60h-40v60h220q80 0 140 -60l154 -110q19 71 84 115.5t152 44.5h180v-80z" />
    <glyph glyph-name="uni09470930094D0902" horiz-adv-x="0" 
d="M-58 1410h-80q-57 0 -98.5 -44.5t-41.5 -105.5q0 -62 43.5 -106t106.5 -44v-50h-180q-79 0 -120 40l-400 280q-60 60 -120 60h-40v60h220q80 0 140 -60l154 -110q19 71 84 115.5t152 44.5h180v-80zM-88 1180q-32 0 -56 24t-24 56q0 33 22.5 56.5t57.5 23.5q36 0 58 -22
t22 -58q0 -35 -23.5 -57.5t-56.5 -22.5z" />
    <glyph glyph-name="uni09480902" horiz-adv-x="0" 
d="M-28 1140h-160q-49 0 -88 48l-164 202q-41 50 -108 50h-140v60h294q62 0 104 -54l162 -206q31 -40 80 -40h20v-60zM-14 1300q-36 0 -62 26t-26 62t26 62t62 26t62 -26t26 -62t-26 -62t-62 -26zM-228 1060h-220q-57 0 -120 50l-240 190q-51 40 -100 40h-80v60h220
q70 0 120 -40l252 -200q50 -40 106 -40h62v-60z" />
    <glyph glyph-name="uni09480930094D" horiz-adv-x="0" 
d="M152 1414h-60q-79 0 -124.5 -40t-45.5 -104q0 -67 41.5 -109.5t108.5 -42.5v-58h-150q-61 0 -110 58l-230 276q-40 48 -100 48h-50v58h190q56 0 98 -52l58 -72q54 114 214 114h160v-76zM-228 1060h-196q-56 0 -114 48l-240 200q-46 38 -100 38h-70v58h230q56 0 104 -42
l226 -196q55 -48 110 -48h50v-58z" />
    <glyph glyph-name="uni09480930094D0902" horiz-adv-x="0" 
d="M152 1414h-60q-79 0 -124.5 -40t-45.5 -104q0 -67 41.5 -109.5t108.5 -42.5v-58h-150q-61 0 -110 58l-230 276q-40 48 -100 48h-50v58h190q56 0 98 -52l58 -72q54 114 214 114h160v-76zM-228 1060h-196q-56 0 -114 48l-240 200q-46 38 -100 38h-70v58h230q56 0 104 -42
l226 -196q55 -48 110 -48h50v-58zM116 1172q-36 0 -62 26t-26 62t26 62t62 26t62 -26t26 -62t-26 -62t-62 -26z" />
    <glyph glyph-name="uni0930094D" horiz-adv-x="0" 
d="M72 1406h-120q-63 0 -101.5 -32.5t-38.5 -83.5q0 -53 40 -117t100 -113h-200q-60 49 -100 113t-40 117q0 84 68.5 138t171.5 54h220v-76z" />
    <glyph glyph-name="uni0930094D0902" horiz-adv-x="0" 
d="M72 1406h-120q-63 0 -101.5 -32.5t-38.5 -83.5q0 -53 40 -117t100 -113h-200q-60 49 -100 113t-40 117q0 84 68.5 138t171.5 54h220v-76zM14 1150q-36 0 -62 26t-26 62t26 62t62 26t62 -26t26 -62t-26 -62t-62 -26z" />
    <glyph glyph-name="uni094D0930Alt" horiz-adv-x="0" 
d="M-228 260q-206 -172 -440.5 -266t-459.5 -94v120q441 0 900 320v-80z" />
    <glyph glyph-name="uni094D0930Default" horiz-adv-x="0" 
d="M172 -400h-130l-270 290l-270 -290h-130l300 400h200z" />
    <glyph glyph-name="uni0936094D0930" horiz-adv-x="1176" 
d="M1246 960h-218v-840q0 -33 42.5 -56.5t97.5 -23.5v-40h-460v40q56 0 98 23t42 57v300l-600 -380l-50 70l430 270l-280 150q-53 -27 -147.5 -48.5t-152.5 -21.5v76q162 3 240 44q-106 39 -173 116.5t-67 163.5q0 105 90 172.5t210 67.5t210 -67.5t90 -172.5
q0 -90 -57 -162.5t-171 -127.5l278 -150l150 90v450h-120v80h518v-80zM352 612q43 35 79.5 103t36.5 141q0 85 -34.5 142.5t-85.5 57.5q-50 0 -85 -60t-35 -140q0 -64 33 -130t91 -114z" />
    <glyph glyph-name="uni095E094D0930" horiz-adv-x="1382" 
d="M622 960h-300v-420q0 -64 42 -112t98 -48q91 0 160 60v520zM496 314q-48 -14 -94 -14q-107 0 -183.5 68.5t-76.5 171.5v420h-148v80h1458v-80h-650v-180q68 60 180 60q156 0 248 -92t92 -248q0 -153 -98.5 -246.5t-251.5 -93.5q-73 0 -130 40l10 40q40 -20 90 -20
q74 0 127 81t53 199q0 115 -52 192.5t-128 77.5q-80 0 -140 -70v-580q0 -33 42.5 -56.5t97.5 -23.5v-40h-460v40q56 0 98 23t42 57v220q-177 -171 -329.5 -265.5t-250.5 -94.5l-10 120q186 0 464 214zM42 0zM350 -158q-36 0 -62 26t-26 62t26 62t62 26t62 -26t26 -62
t-26 -62t-62 -26z" />
    <glyph glyph-name="uni09240924" horiz-adv-x="1210" 
d="M882 670q-97 80 -270 80q-129 0 -219.5 -91.5t-90.5 -218.5q0 -110 40 -192.5t120 -137.5l-140 -110q-100 83 -150 188t-50 232q0 108 62.5 199.5t167.5 130.5h-330v70h580q156 0 280 -70v210h-888v80h1286v-80h-218v-840q0 -33 42.5 -56.5t97.5 -23.5v-40h-460v40
q56 0 98 23t42 57v550zM56 0z" />
    <glyph glyph-name="uni0915094D0937" horiz-adv-x="1386" 
d="M468 640q58 0 99 55t41 135t-40.5 135t-99.5 55q-58 0 -99 -57t-41 -133q0 -77 41.5 -133.5t98.5 -56.5zM1058 550h-590q-83 0 -141.5 -53.5t-58.5 -126.5q0 -94 68 -162t162 -68q82 0 150 40v240h220q-20 -24 -20 -160v-80q0 -135 -94.5 -232.5t-225.5 -97.5h-60v50
q75 0 127.5 61.5t52.5 148.5q-44 -52 -116.5 -81t-153.5 -29q-127 0 -218.5 88.5t-91.5 211.5q0 107 84.5 192.5t215.5 107.5q-103 18 -171.5 83.5t-68.5 146.5q0 96 99 163t241 67t241 -66.5t99 -163.5q0 -71 -53.5 -129.5t-136.5 -80.5h440v340h-140v80h538v-80h-218v-840
q0 -33 42.5 -56.5t97.5 -23.5v-40h-460v40q56 0 98 23t42 57v430z" />
    <glyph glyph-name="uni091C094D091E" horiz-adv-x="1342" 
d="M1014 720q-93 0 -294 36q-189 34 -296 34q-57 0 -98.5 -32.5t-41.5 -77.5q0 -49 45.5 -79.5t104.5 -30.5h200q87 0 148.5 -52.5t61.5 -127.5q0 -109 -120.5 -174.5t-269.5 -65.5q49 -61 100.5 -91.5t105.5 -30.5q26 0 64 22l20 -30q-68 -120 -170 -120q-55 0 -115 35
t-125 105q-53 57 -133.5 107t-166.5 73l20 70q53 -30 161 -60t203 -30q101 0 168.5 42t67.5 118q0 60 -51.5 100t-128.5 40h-140q-107 0 -183.5 53.5t-76.5 126.5q0 74 92.5 127t227.5 53q105 0 310 -40q206 -40 310 -40v180h-1020v80h1418v-80h-218v-840q0 -33 42.5 -56.5
t97.5 -23.5v-40h-460v40q56 0 98 23t42 57v600z" />
    <glyph glyph-name="uni0915094DHalf" horiz-adv-x="1116" 
d="M698 300v390q-83 100 -220 100q-105 0 -172.5 -84.5t-67.5 -205.5q0 -118 69 -204t171 -86q113 0 220 90zM876 700v-580q0 -33 42.5 -56.5t97.5 -23.5v-40h-458v40q56 0 98 23t42 57v110q-107 -90 -260 -90q-156 0 -268 106t-112 254q0 149 110.5 254.5t269.5 105.5
q138 0 260 -100v200h-704v80h1192v-80h-310v-180q98 80 260 80v-80q-192 0 -260 -80zM1576 0z" />
    <glyph glyph-name="uni0916094DHalf" horiz-adv-x="1442" 
d="M1340.5 733.5q-69.5 66.5 -168.5 66.5q-112 0 -186 -89.5t-74 -210.5q0 -144 74.5 -232t191.5 -88q91 0 161.5 61.5t72.5 148.5h70q-4 -124 -110 -209t-246 -85q-125 0 -208 56q-55 -67 -144 -109.5t-182 -42.5q-170 0 -300 130q-210 210 -280 210l20 60q110 -40 180 -40
q128 0 214 101.5t86 238.5q0 85 -54 156t-146 104h-318v80h1518v-80h-1080q113 -30 186.5 -112.5t73.5 -187.5q0 -145 -105.5 -247.5t-254.5 -102.5q83 -98 184.5 -154t195.5 -56q91 0 166 82q-73 62 -109.5 141.5t-36.5 176.5q0 157 116.5 268.5t283.5 111.5
q141 0 243.5 -88.5t106.5 -221.5h-70q-2 97 -71.5 163.5zM1572 50zM1392 40zM1720 0z" />
    <glyph glyph-name="uni0917094DHalf" horiz-adv-x="842" 
d="M344 621q-53 0 -87 -57.5t-34 -123.5q0 -64 34 -122t87 -58q51 0 86 54t35 126t-34 126.5t-87 54.5zM912 961h-488q153 -28 256.5 -130.5t103.5 -230.5q0 -166 -129 -282.5t-311 -116.5q-123 0 -212 71t-89 172q0 98 79 172t191 74q106 0 174 -75t68 -175h8q41 47 41 160
q0 101 -58 185.5t-150 130t-132 45.5h-270v79h918v-79z" />
    <glyph glyph-name="uni0918094DHalf" horiz-adv-x="758" 
d="M828 961h-343q-56 0 -102.5 -53.5t-46.5 -116.5q0 -68 38.5 -109t82.5 -41h59v-61h-59q-82 0 -141.5 -56t-59.5 -135t77 -133.5t183 -54.5q74 0 139 32t121 97v-70q-68 -80 -168 -120t-231 -40q-136 0 -229 77.5t-93 182.5q0 91 68.5 161.5t173.5 88.5v11
q-71 5 -116.5 52.5t-45.5 106.5q0 48 40.5 99t121.5 82h-303v79h834v-79zM956 120zM1104 0zM1096 40z" />
    <glyph glyph-name="uni0919094DHalf" horiz-adv-x="1230" 
d="M1300 960h-364v-220h-320q-85 0 -142.5 -29t-57.5 -71q0 -41 60.5 -70.5t139.5 -29.5h120q117 0 198.5 -66.5t81.5 -163.5q0 -128 -130 -219t-310 -91q-215 0 -367.5 160t-172.5 390l60 10q18 -198 160 -334t330 -136q105 0 177.5 61.5t72.5 148.5q0 71 -46.5 120.5
t-113.5 49.5h-170q-111 0 -190.5 56t-79.5 134q0 66 78 113t192 47h250v140h-762v80h1306v-80zM1084 526q-36 0 -62 26t-26 62t26 62t62 26t62 -26t26 -62t-26 -62t-62 -26zM1130 0zM1187 -430h-200l-440 340l-60 -40h-120l120 100h200z" />
    <glyph glyph-name="uni091A094DHalf" horiz-adv-x="825" 
d="M864 219q-70 -70 -160 -104.5t-200 -34.5q-167 0 -283.5 100.5t-116.5 239.5q0 95 80 184t209 135h-368v62h759v-62h-159q-137 0 -229.5 -85t-92.5 -203q0 -117 87 -204t214 -87q70 0 141 35.5t119 95.5v-72zM895 961h-901v79h901v-79zM1044 120zM1192 0zM1184 40z" />
    <glyph glyph-name="uni091B094DHalf" horiz-adv-x="1222" 
d="M950 300q30 82 30 200q0 104 -29 172t-71 68t-71 -57.5t-29 -132.5q0 -103 50 -176.5t120 -73.5zM878 796q143 0 212.5 -82t69.5 -214q0 -214 -165.5 -357t-394.5 -143q-239 0 -384.5 76.5t-145.5 203.5q0 80 69 141t173 69l-2 10q-93 8 -156.5 60.5t-63.5 119.5
q0 81 72.5 140.5t177.5 59.5q92 0 160 -60l-30 -40q-52 30 -80 30q-49 0 -84.5 -38.5t-35.5 -91.5q0 -64 60 -112t140 -48v-40q-93 0 -156.5 -58.5t-63.5 -141.5q0 -105 99.5 -162.5t250.5 -57.5q118 0 213 55.5t127 144.5q-129 0 -224.5 80t-95.5 200q0 104 70.5 180
t187.5 76zM1292 960h-1298v80h1298v-80z" />
    <glyph glyph-name="uni091C094DHalf" horiz-adv-x="963" 
d="M1006 659h-340q97 -33 148.5 -111t51.5 -167q0 -143 -102 -241.5t-248 -98.5q-195 0 -333 186.5t-138 442.5h61q19 -208 122.5 -344t238.5 -136q91 0 155 63t64 157q0 106 -69.5 177.5t-170.5 71.5h-40v62h600v-62zM1033 961h-1039v79h1039v-79zM1186 120zM1334 0z
M1184 40z" />
    <glyph glyph-name="uni091D094DHalf" horiz-adv-x="860" 
d="M276 660q0 -63 48.5 -101.5t117.5 -38.5h150q42 0 86.5 -24t61.5 -56h140v-60h-114q10 -37 10 -80q0 -101 -104.5 -170.5t-255.5 -69.5q92 -90 190 -90q126 0 190 90l30 -40q-85 -150 -290 -150q-56 0 -130 38t-150 106q-174 156 -220 156v50h190q36 -59 140 -120
q85 0 147.5 59.5t62.5 140.5q0 59 -33.5 99.5t-86.5 40.5h-160q-91 0 -155.5 59.5t-64.5 140.5q0 82 81 141t199 59h160v120h-522v80h936v-80h-234v-200h-320q-43 0 -71.5 -29.5t-28.5 -70.5z" />
    <glyph glyph-name="uni091E094DHalf" horiz-adv-x="602" 
d="M688 500h-162q-18 -109 -94.5 -174.5t-183.5 -65.5q-69 0 -125 30.5t-100 92.5l24 37q27 -30 58 -45t65 -15q79 0 128.5 51.5t49.5 129.5q0 80 -47.5 130t-126.5 50q-35 0 -67 -12t-60 -35l-18 41q45 52 101.5 78t123.5 26q114 0 185.5 -67.5t86.5 -192.5h162v-59z
M672 961h-678v79h678v-79zM496 40z" />
    <glyph glyph-name="uni091F094DHalf" horiz-adv-x="976" 
d="M1046 960h-210v-280q-150 40 -260 40q-139 0 -239.5 -93t-100.5 -227q0 -131 111.5 -225.5t268.5 -94.5q151 0 310 130l30 -30q-72 -86 -178 -133t-222 -47q-199 0 -349.5 116t-150.5 294q0 159 137.5 269.5t332.5 110.5q74 0 130 -10v180h-662v80h1052v-80zM1167 -430
h-200l-440 340l-60 -40h-120l120 100h200z" />
    <glyph glyph-name="uni0920094DHalf" horiz-adv-x="1118" 
d="M1188 960h-328v-200h-90q132 -49 211 -147.5t79 -212.5q0 -167 -135.5 -283.5t-324.5 -116.5h-80q-188 0 -324 118t-136 282q0 165 134.5 282.5t325.5 117.5h160v160h-686v80h1194v-80zM600 740h-80q-121 0 -200.5 -102.5t-79.5 -237.5t79.5 -237.5t200.5 -102.5h80
q121 0 200.5 102.5t79.5 237.5t-79.5 237.5t-200.5 102.5zM1167 -430h-200l-440 340l-60 -40h-120l120 100h200z" />
    <glyph glyph-name="uni0921094DHalf" horiz-adv-x="1130" 
d="M1200 960h-264v-220h-340q-90 0 -135 -25t-45 -75t50 -75t150 -25h120q117 0 198.5 -66.5t81.5 -163.5q0 -128 -130 -219t-310 -91q-215 0 -367.5 160t-172.5 390l60 10q18 -198 160 -334t330 -136q106 0 178 60.5t72 149.5q0 72 -48.5 121t-123.5 49h-158
q-118 0 -194 52t-76 138q0 73 74.5 116.5t195.5 43.5h250v140h-762v80h1206v-80zM1205 -430h-200l-440 340l-60 -40h-120l120 100h200z" />
    <glyph glyph-name="uni0922094DHalf" horiz-adv-x="1152" 
d="M1222 960h-284v-220h-280q-173 0 -296.5 -100.5t-123.5 -239.5q0 -137 86 -238.5t214 -101.5h80q-55 39 -87.5 110.5t-32.5 159.5q0 121 87.5 205.5t212.5 84.5t212.5 -87.5t87.5 -212.5q0 -134 -100.5 -227t-239.5 -93h-220q-196 0 -338 118t-142 282q0 167 145.5 283.5
t354.5 116.5h200v160h-764v80h1228v-80zM758 540q-75 0 -127.5 -68t-52.5 -162q0 -102 53.5 -176t126.5 -74q66 0 113 72t47 178q0 99 -46 164.5t-114 65.5zM1268 -430h-200l-440 340l-60 -40h-120l120 100h200z" />
    <glyph glyph-name="uni0923094DHalf" horiz-adv-x="831" 
d="M555 961h-279v-498q0 -93 40.5 -158t99.5 -65q56 0 97.5 60t41.5 163v498zM902 961h-167v-500q0 -124 -97.5 -202.5t-221.5 -78.5q-134 0 -227 82.5t-93 198.5v500h-102v79h908v-79zM816 40z" />
    <glyph glyph-name="uni0924094DHalf" horiz-adv-x="784" 
d="M815 657q-103 93 -270 93q-138 0 -219.5 -90t-81.5 -240q0 -70 39.5 -140.5t119.5 -140.5l-139 -139q-93 79 -147 186t-54 213q0 170 138.5 295t343.5 125q170 0 270 -74v-88zM854 961h-860v79h860v-79z" />
    <glyph glyph-name="uni0925094DHalf" horiz-adv-x="842" 
d="M563 760v80q0 80 -32.5 135t-86.5 55q-50 0 -85 -57.5t-35 -132.5q0 -56 35.5 -98t84.5 -42q52 0 119 60zM877 242q-63 -71 -154 -106.5t-209 -35.5q-194 0 -332.5 146.5t-138.5 353.5q113 -41 201 -41q102 0 177.5 31.5t102.5 79.5q-82 -31 -121 -31q-102 0 -181 59
t-79 142q0 97 87 168t214 71q124 0 211.5 -75.5t87.5 -184.5q0 -145 -123.5 -236.5t-279.5 -91.5q-47 0 -96 9q0 -120 104.5 -209.5t255.5 -89.5q157 0 273 108v-67zM1064 120zM1212 0z" />
    <glyph glyph-name="uni0926094DHalf" horiz-adv-x="1044" 
d="M446 40q-161 0 -275.5 107.5t-114.5 256.5q0 151 140 258.5t340 107.5h160v190h-702v80h1120v-80h-238v-260h-340q-123 0 -211.5 -83t-88.5 -203q0 -117 88.5 -200.5t211.5 -83.5q64 0 126.5 25t123.5 75q10 56 10 70q0 153 -40 200h190q30 -55 30 -160
q0 -139 -69.5 -259t-190.5 -191l-30 30q63 76 90 240q-48 -57 -136 -88.5t-194 -31.5zM768 800zM957 -452h-200l-440 340l-60 -40h-120l120 100h200z" />
    <glyph glyph-name="uni0927094DHalf" horiz-adv-x="732" 
d="M772 230q-64 -77 -165 -113.5t-179 -36.5q-143 0 -246.5 82.5t-103.5 197.5q0 97 62 170.5t158 89.5v10q-90 16 -150 74t-60 126q0 97 81.5 163.5t198.5 66.5q99 0 164.5 -52t65.5 -128q0 -46 -31.5 -78t-78.5 -32q-45 0 -77.5 25.5t-32.5 64.5q0 37 29.5 63.5t70.5 26.5
q28 0 40 -10q0 27 -27.5 43.5t-62.5 16.5q-63 0 -106.5 -46.5t-43.5 -113.5q0 -72 54 -126t126 -54h60v-60h-60q-73 0 -126.5 -62.5t-53.5 -147.5t67.5 -147.5t156.5 -62.5q80 0 147.5 32.5t122.5 97.5v-80zM802 960h-150v80h150v-80zM808 961zM988 970zM1136 0z" />
    <glyph glyph-name="uni0928094DHalf" horiz-adv-x="916" 
d="M434 140q82 0 141 81t59 199t-58.5 199t-141.5 81q-82 0 -141 -83t-59 -197q0 -115 59.5 -197.5t140.5 -82.5zM954 540q-60 49 -135 81.5t-165 48.5q76 -35 118 -102t42 -148q0 -141 -110.5 -240.5t-269.5 -99.5q-157 0 -268.5 100.5t-111.5 239.5t111.5 239.5
t268.5 100.5q178 0 308 -35t212 -105v-80zM986 960h-992v80h992v-80zM518 800zM1134 120zM1282 0z" />
    <glyph glyph-name="uni0929094DHalf" horiz-adv-x="916" 
d="M434 220q83 0 141.5 69.5t58.5 170.5t-58.5 170.5t-141.5 69.5q-81 0 -140.5 -70.5t-59.5 -169.5t59.5 -169.5t140.5 -70.5zM954 540q-60 49 -135 81.5t-165 48.5q77 -35 118.5 -90.5t41.5 -119.5q0 -125 -110.5 -212.5t-269.5 -87.5q-157 0 -268.5 88.5t-111.5 211.5
t111.5 211.5t268.5 88.5q178 0 308 -35t212 -105v-80zM986 960h-992v80h992v-80zM430 -110q-36 0 -62 26t-26 62t26 62t62 26t62 -26t26 -62t-26 -62t-62 -26zM518 800zM1134 120zM1282 0z" />
    <glyph glyph-name="uni092A094DHalf" horiz-adv-x="636" 
d="M706 960h-430v-500q0 -80 60 -140t140 -60q73 0 129.5 53.5t70.5 136.5v-130q-34 -74 -106 -117t-154 -43q-133 0 -226.5 93.5t-93.5 226.5v480h-102v80h712v-80zM856 120zM1004 0z" />
    <glyph glyph-name="uni092B094DHalf" horiz-adv-x="900" 
d="M580 960h-300v-540q0 -62 44 -106t106 -44q64 0 107 44.5t43 109.5v536zM580 260q-97 -80 -220 -80q-107 0 -183.5 68.5t-76.5 171.5v540h-106v80h976v-80h-210v-190q83 70 180 70v-80q-95 0 -180 -100v-534q0 -39 42.5 -62.5t97.5 -23.5v-40h-460v40q61 0 100.5 22.5
t39.5 63.5v134zM1342 0z" />
    <glyph glyph-name="uni092C094DHalf" horiz-adv-x="778" 
d="M848 960h-854v80h854v-80zM438 120q-156 0 -268 106t-112 254q0 149 110.5 254.5t269.5 105.5q160 0 270 -104t110 -256q0 -151 -111.5 -255.5t-268.5 -104.5zM398 740l260 -470q90 91 90 210q0 117 -73.5 197.5t-180.5 80.5q-60 0 -96 -18zM608 230l-270 480
q-100 -83 -100 -230q0 -115 73 -197.5t181 -82.5q61 0 116 30zM748 40z" />
    <glyph glyph-name="uni092D094DHalf" horiz-adv-x="830" 
d="M460 840q0 75 -32 127.5t-78 52.5t-78 -52.5t-32 -127.5q0 -65 32 -112.5t78 -47.5t78 47.5t32 112.5zM460 500h-60q-63 0 -101.5 -54.5t-38.5 -137.5q0 -85 28 -141.5t72 -56.5q42 0 71 46t29 114v230zM870 498h-230v-158q0 -119 -82.5 -204.5t-197.5 -85.5t-197.5 79.5
t-82.5 190.5q0 103 76.5 171.5t183.5 68.5h120v120q-52 -60 -140 -60q-95 0 -162.5 64.5t-67.5 155.5q0 99 79.5 169.5t190.5 70.5q115 0 197.5 -75t82.5 -185v-260h230v-62zM900 960h-210v80h210v-80zM1040 120zM860 120zM1188 0z" />
    <glyph glyph-name="uni092E094DHalf" horiz-adv-x="806" 
d="M876 960h-290v-380h260v-70h-260v-150q0 -113 -84 -201.5t-196 -88.5q-111 0 -185.5 73.5t-74.5 182.5q0 117 82 185.5t218 68.5h60v380h-412v80h882v-80zM406 280v230h-70q-50 0 -80 -56t-30 -140q0 -92 20 -138t60 -46q43 0 71.5 45t28.5 105zM1026 120zM1174 0z" />
    <glyph glyph-name="uni092F094DHalf" horiz-adv-x="766" 
d="M836 961h-383q83 -25 131.5 -72.5t48.5 -97.5q0 -96 -83.5 -153.5t-205.5 -57.5h-123q0 -164 98.5 -262.5t255.5 -98.5q126 0 232 90v-69q-124 -101 -315 -101q-206 0 -325.5 130t-119.5 345q0 41 4 66q89 -41 170 -41q102 0 161.5 43t59.5 119q0 66 -55.5 113t-75.5 47
h-317v79h842v-79zM992 40zM812 120zM1140 0z" />
    <glyph glyph-name="uni093F_2" horiz-adv-x="476" 
d="M546 960h-218v-840q0 -33 42.5 -56.5t97.5 -23.5v-40h-460v40q56 0 98 23t42 57v840h-154v80h552v-80zM1910 1060h-180q-103 168 -368 265t-632 97q-189 0 -321.5 -73t-132.5 -173q0 -68 40 -116h-176q-42 45 -42 118q0 124 184 213t448 89q432 0 746.5 -112t433.5 -308z
" />
    <glyph glyph-name="uni093F_2_0902" horiz-adv-x="476" 
d="M546 960h-218v-840q0 -33 42.5 -56.5t97.5 -23.5v-40h-460v40q56 0 98 23t42 57v840h-154v80h552v-80zM1910 1060h-180q-103 168 -368 265t-632 97q-189 0 -321.5 -73t-132.5 -173q0 -68 40 -116h-176q-42 45 -42 118q0 124 184 213t448 89q432 0 746.5 -112t433.5 -308z
M1894 1252q-36 0 -62 26t-26 62t26 62t62 26t62 -26t26 -62t-26 -62t-62 -26z" />
    <glyph glyph-name="uni0932094DHalf" horiz-adv-x="944" 
d="M1014 961h-1020v79h1020v-79zM766 479h-49q0 94 -64 168t-157 74q-102 0 -176 -94.5t-74 -227.5q0 -140 77 -229.5t173 -89.5q74 0 120 41l29 -31q-59 -70 -209 -70q-155 0 -262.5 117.5t-107.5 282.5q0 169 108 284t262 115q103 0 186 -51t123 -137q29 69 89 109t151 51
v-70q-92 7 -155.5 -61.5t-63.5 -180.5zM1166 120zM1314 0z" />
    <glyph glyph-name="uni0933094DHalf" horiz-adv-x="1208" 
d="M606 644q-66 116 -158 116q-82 0 -141 -106t-59 -254q0 -141 54 -245.5t126 -104.5q58 0 99 106t41 264q0 140 38 224zM688 166q70 -96 180 -96q82 0 141 96t59 234q0 153 -52.5 256.5t-127.5 103.5q-65 0 -102.5 -104.5t-37.5 -253.5q0 -151 -60 -236zM652 112
q-71 -112 -224 -112q-148 0 -254 124t-106 296q0 167 99.5 283.5t240.5 116.5q155 0 226 -124q81 134 268 134q149 0 247.5 -122.5t98.5 -287.5q0 -173 -100.5 -296.5t-269.5 -123.5q-142 0 -226 112zM1278 960h-1284v80h1284v-80zM1318 0z" />
    <glyph glyph-name="uni0934094DHalf" horiz-adv-x="1208" 
d="M606 644q-66 116 -158 116q-82 0 -141 -106t-59 -254q0 -141 54 -245.5t126 -104.5q58 0 99 106t41 264q0 140 38 224zM688 166q70 -96 180 -96q82 0 141 96t59 234q0 153 -52.5 256.5t-127.5 103.5q-65 0 -102.5 -104.5t-37.5 -253.5q0 -151 -60 -236zM652 112
q-71 -112 -224 -112q-148 0 -254 124t-106 296q0 167 99.5 283.5t240.5 116.5q155 0 226 -124q81 134 268 134q149 0 247.5 -122.5t98.5 -287.5q0 -173 -100.5 -296.5t-269.5 -123.5q-142 0 -226 112zM1278 960h-1284v80h1284v-80zM1318 0zM625 -229q-36 0 -62 26t-26 62
t26 62t62 26t62 -26t26 -62t-26 -62t-62 -26z" />
    <glyph glyph-name="uni0935094DHalf" horiz-adv-x="778" 
d="M848 960h-854v80h854v-80zM438 120q-156 0 -268 106t-112 254q0 149 110.5 254.5t269.5 105.5q160 0 270 -104t110 -256q0 -151 -111.5 -255.5t-268.5 -104.5zM492 740q-108 0 -181 -76t-73 -184q0 -111 74.5 -190.5t179.5 -79.5t180.5 78.5t75.5 191.5
q0 109 -74.5 184.5t-181.5 75.5z" />
    <glyph glyph-name="uni0936094DHalf" horiz-adv-x="956" 
d="M483 520q93 0 153 64t60 153q0 97 -58 160.5t-155 63.5q-89 0 -154 -63t-65 -159q0 -92 63.5 -155.5t155.5 -63.5zM684 555q-126 -104 -260 -104q-142 0 -246 85t-104 203q0 113 114 202t295 89q164 0 283 -130.5t119 -319.5q0 -182 -112.5 -311.5t-268.5 -129.5
q-70 0 -139 41q107 -136 171.5 -173.5t168.5 -37.5v-49h-121q-123 0 -198.5 35.5t-121.5 114.5q-49 84 -104 131.5t-117 58.5v39h260q80 -88 141 -88q109 0 174.5 96t65.5 248z" />
    <glyph glyph-name="uni0937094DHalf" horiz-adv-x="700" 
d="M730 290l-450 620v-470q0 -100 70 -170t170 -70q131 0 210 90zM770 960h-440l410 -560v-160q-102 -120 -280 -120q-149 0 -254.5 94.5t-105.5 225.5v520h-106v80h776v-80zM920 40zM1068 0z" />
    <glyph glyph-name="uni0938094DHalf" horiz-adv-x="963" 
d="M1001 510q-60 -10 -100 -10q-82 0 -158 35q-46 -110 -154 -165t-278 -55q116 -138 179 -176.5t122 -38.5q94 0 160 111l39 -31q-82 -180 -283 -180q-85 0 -159 35t-156 125q-141 163 -209 180l16 53q106 -33 185 -33q149 0 247.5 82.5t98.5 212.5q0 75 -36.5 143
t-112 115.5t-119.5 47.5h-289v79h1039v-79h-591q153 -32 236.5 -123t83.5 -226q60 -43 139 -43q42 0 100 21v-80zM1182 40zM1329 0z" />
    <glyph glyph-name="uni0939094DHalf" horiz-adv-x="910" 
d="M980 960h-150v-200h-290q-65 0 -109.5 -31t-44.5 -77q0 -44 54 -82q56 10 110 10q141 0 238 -50t112 -130h-180q-8 49 -61 79.5t-129 30.5q-126 0 -213 -67t-87 -163q0 -132 118 -216t272 -84q229 0 330 80l-60 -140h-270q-282 0 -428 93.5t-146 252.5q0 95 74.5 169.5
t189.5 104.5q-110 40 -110 130q0 67 64.5 108.5t145.5 41.5h240v140h-656v80h986v-80z" />
    <glyph glyph-name="uni0958094DHalf" horiz-adv-x="1116" 
d="M698 300v390q-83 100 -220 100q-105 0 -172.5 -84.5t-67.5 -205.5q0 -118 69 -204t171 -86q113 0 220 90zM876 700v-580q0 -33 42.5 -56.5t97.5 -23.5v-40h-458v40q56 0 98 23t42 57v110q-107 -90 -260 -90q-156 0 -268 106t-112 254q0 149 110.5 254.5t269.5 105.5
q138 0 260 -100v200h-704v80h1192v-80h-310v-180q98 80 260 80v-80q-192 0 -260 -80zM1576 0zM432 -218q-36 0 -62 26t-26 62t26 62t62 26t62 -26t26 -62t-26 -62t-62 -26z" />
    <glyph glyph-name="uni0959094DHalf" horiz-adv-x="1442" 
d="M1340.5 733.5q-69.5 66.5 -168.5 66.5q-112 0 -186 -89.5t-74 -210.5q0 -144 74.5 -232t191.5 -88q91 0 161.5 61.5t72.5 148.5h70q-4 -124 -110 -209t-246 -85q-125 0 -208 56q-55 -67 -144 -109.5t-182 -42.5q-170 0 -300 130q-210 210 -280 210l20 60q110 -40 180 -40
q128 0 214 101.5t86 238.5q0 85 -54 156t-146 104h-318v80h1518v-80h-1080q113 -30 186.5 -112.5t73.5 -187.5q0 -145 -105.5 -247.5t-254.5 -102.5q83 -98 184.5 -154t195.5 -56q91 0 166 82q-73 62 -109.5 141.5t-36.5 176.5q0 157 116.5 268.5t283.5 111.5
q141 0 243.5 -88.5t106.5 -221.5h-70q-2 97 -71.5 163.5zM1572 50zM1392 40zM1720 0zM150 -119q-36 0 -62 26t-26 62t26 62t62 26t62 -26t26 -62t-26 -62t-62 -26z" />
    <glyph glyph-name="uni095A094DHalf" horiz-adv-x="842" 
d="M344 621q-53 0 -87 -57.5t-34 -123.5q0 -64 34 -122t87 -58q51 0 86 54t35 126t-34 126.5t-87 54.5zM912 961h-488q153 -28 256.5 -130.5t103.5 -230.5q0 -166 -129 -282.5t-311 -116.5q-123 0 -212 71t-89 172q0 98 79 172t191 74q106 0 174 -75t68 -175h8q41 47 41 160
q0 101 -58 185.5t-150 130t-132 45.5h-270v79h918v-79zM377 -100q-36 0 -62 26t-26 62t26 62t62 26t62 -26t26 -62t-26 -62t-62 -26z" />
    <glyph glyph-name="uni095B094DHalf" horiz-adv-x="958" 
d="M1028 961h-1034v79h1034v-79zM997 659h-319q84 -28 132 -94.5t48 -144.5q0 -118 -101 -199.5t-239 -81.5q-180 0 -320.5 163t-158.5 398h59q31 -184 136 -307t235 -123q86 0 147.5 55.5t61.5 135.5q0 83 -69 140.5t-171 57.5h-100v62h659v-62zM518 57q38 0 63 -25.5
t25 -62.5t-27.5 -62.5t-60.5 -25.5q-32 0 -60 25.5t-28 62.5t25.5 62.5t62.5 25.5z" />
    <glyph glyph-name="uni095E094DHalf" horiz-adv-x="900" 
d="M580 960h-300v-540q0 -62 44 -106t106 -44q64 0 107 44.5t43 109.5v536zM580 260q-97 -80 -220 -80q-107 0 -183.5 68.5t-76.5 171.5v540h-106v80h976v-80h-210v-190q83 70 180 70v-80q-95 0 -180 -100v-534q0 -39 42.5 -62.5t97.5 -23.5v-40h-460v40q61 0 100.5 22.5
t39.5 63.5v134zM1342 0zM352 -268q-36 0 -62 26t-26 62t26 62t62 26t62 -26t26 -62t-26 -62t-62 -26z" />
    <glyph glyph-name="uni0936094D0930Half" horiz-adv-x="650" 
d="M810 400l-460 130q-136 -80 -300 -80v90q170 0 240 40q-106 39 -173 116.5t-67 163.5q0 105 90 172.5t210 67.5t210 -67.5t90 -172.5q0 -89 -63.5 -166t-166.5 -114l380 -110zM350 620q60 50 90 110t30 130q0 69 -34 114.5t-86 45.5q-51 0 -85.5 -48t-34.5 -112
q0 -63 32 -128.5t88 -111.5zM54 1040z" />
    <glyph glyph-name="uni0924094D0930Half" horiz-adv-x="748" 
d="M813 541l-629 -461l-51 59l412 301q-56 146 -141 222.5t-171 76.5q-78 0 -180 -90l-39 41q126 150 320 150q100 0 199.5 -70t181.5 -211l98 72v-90zM818 961h-824v79h824v-79zM993 121zM1143 0z" />
    <glyph glyph-name="uni0924094D0924Half" horiz-adv-x="725" 
d="M879 662q-109 88 -275 88q-127 0 -214 -98t-87 -232q0 -98 39.5 -183.5t112.5 -136.5l-131 -100q-100 85 -149.5 190t-49.5 230q0 105 45.5 189.5t124.5 129.5h-270v80h579q157 0 275 -65v-92zM795 961h-801v79h801v-79zM1062 120zM1210 0zM56 0z" />
    <glyph glyph-name="uni0915094D0937Half" horiz-adv-x="1020" 
d="M468 640q58 0 99 55t41 135t-40.5 135t-99.5 55q-58 0 -99 -57t-41 -133q0 -77 41.5 -133.5t98.5 -56.5zM1058 550h-590q-83 0 -141.5 -53.5t-58.5 -126.5q0 -94 68 -162t162 -68q82 0 150 40v240h220q-20 -24 -20 -160v-80q0 -135 -94.5 -232.5t-225.5 -97.5h-60v50
q75 0 127.5 61.5t52.5 148.5q-44 -52 -116.5 -81t-153.5 -29q-127 0 -218.5 88.5t-91.5 211.5q0 107 84.5 192.5t215.5 107.5q-103 18 -171.5 83.5t-68.5 146.5q0 96 99 163t241 67t241 -66.5t99 -163.5q0 -71 -53.5 -129.5t-136.5 -80.5h440v-70zM1090 960h-290v80h290v-80
zM1238 120zM1386 0z" />
    <glyph glyph-name="uni091C094D091EHalf" horiz-adv-x="976" 
d="M1014 720q-93 0 -294 36q-189 34 -296 34q-57 0 -98.5 -32.5t-41.5 -77.5q0 -49 45.5 -79.5t104.5 -30.5h200q87 0 148.5 -52.5t61.5 -127.5q0 -109 -120.5 -174.5t-269.5 -65.5q55 -60 105.5 -90t96.5 -30q33 0 68 20l20 -30q-68 -120 -170 -120q-55 0 -115 35t-125 105
q-53 57 -133.5 107t-166.5 73l20 70q80 -45 175 -67.5t205 -22.5q90 0 155 47t65 113q0 60 -51.5 100t-128.5 40h-140q-107 0 -183.5 53.5t-76.5 126.5q0 74 92.5 127t227.5 53q105 0 310 -40q206 -40 310 -40v-60zM1046 960h-1052v80h1052v-80zM1194 120zM1342 0z" />
    <glyph glyph-name="uni093F0902" horiz-adv-x="476" 
d="M546 960h-218v-840q0 -33 42.5 -56.5t97.5 -23.5v-40h-460v40q56 0 98 23t42 57v840h-154v80h552v-80zM1128 1060h-180q0 153 -106 258.5t-264 105.5q-131 0 -220.5 -61.5t-89.5 -148.5q0 -37 16 -80.5t44 -73.5h-180q-28 30 -44 73.5t-16 80.5q0 123 153.5 195.5
t336.5 72.5q231 0 390.5 -122t159.5 -300zM1212 1270q-36 0 -62 26t-26 62t26 62t62 26t62 -26t26 -62t-26 -62t-62 -26z" />
    <glyph glyph-name="uni093F0930094D" horiz-adv-x="476" 
d="M546 960h-218v-840q0 -33 42.5 -56.5t97.5 -23.5v-40h-460v40q56 0 98 23t42 57v840h-154v80h552v-80zM1468 1396h-120q-77 0 -120.5 -43.5t-43.5 -114.5q0 -74 56 -178h-208q-12 164 -141 264t-313 100q-120 0 -215 -59t-95 -151q0 -89 60 -154h-180q-60 65 -60 154
q0 114 142.5 191t347.5 77q261 0 450 -126q61 116 220 116h220v-76z" />
    <glyph glyph-name="uni093F0930094D0902" horiz-adv-x="476" 
d="M546 960h-218v-840q0 -33 42.5 -56.5t97.5 -23.5v-40h-460v40q56 0 98 23t42 57v840h-154v80h552v-80zM1468 1396h-120q-77 0 -120.5 -43.5t-43.5 -114.5q0 -74 56 -178h-208q-12 164 -141 264t-313 100q-120 0 -215 -59t-95 -151q0 -89 60 -154h-180q-60 65 -60 154
q0 114 142.5 191t347.5 77q261 0 450 -126q61 116 220 116h220v-76zM1394 1118q-36 0 -62 26t-26 62t26 62t62 26t62 -26t26 -62t-26 -62t-62 -26z" />
    <glyph glyph-name="uni093F_3" horiz-adv-x="476" 
d="M546 960h-218v-840q0 -33 42.5 -56.5t97.5 -23.5v-40h-460v40q56 0 98 23t42 57v840h-154v80h552v-80zM998 1060h-180q0 155 -95.5 259.5t-234.5 104.5q-105 0 -172.5 -56t-67.5 -134q0 -80 80 -174h-180q-80 94 -80 174q0 102 122 175t298 73q215 0 362.5 -122
t147.5 -300z" />
    <glyph glyph-name="uni093F_3_0902" horiz-adv-x="476" 
d="M546 960h-218v-840q0 -33 42.5 -56.5t97.5 -23.5v-40h-460v40q56 0 98 23t42 57v840h-154v80h552v-80zM998 1060h-180q0 155 -95.5 259.5t-234.5 104.5q-105 0 -172.5 -56t-67.5 -134q0 -80 80 -174h-180q-80 94 -80 174q0 102 122 175t298 73q215 0 362.5 -122
t147.5 -300zM1072 1260q-36 0 -62 26t-26 62t26 62t62 26t62 -26t26 -62t-26 -62t-62 -26z" />
    <glyph glyph-name="uni093F_3_0930094D" horiz-adv-x="476" 
d="M546 960h-218v-840q0 -33 42.5 -56.5t97.5 -23.5v-40h-460v40q56 0 98 23t42 57v840h-154v80h552v-80zM1158 1396h-72q-59 0 -94.5 -40.5t-35.5 -109.5q0 -68 62 -186h-200q-6 160 -101.5 262t-228.5 102q-102 0 -171 -53.5t-69 -136.5q0 -87 80 -174h-182
q-80 80 -80 162q0 114 126 187t296 73q189 0 328 -98q67 88 202 88h140v-76z" />
    <glyph glyph-name="uni093F_3_0930094D0902" horiz-adv-x="476" 
d="M546 960h-218v-840q0 -33 42.5 -56.5t97.5 -23.5v-40h-460v40q56 0 98 23t42 57v840h-154v80h552v-80zM1158 1396h-72q-59 0 -94.5 -40.5t-35.5 -109.5q0 -68 62 -186h-200q-6 160 -101.5 262t-228.5 102q-102 0 -171 -53.5t-69 -136.5q0 -87 80 -174h-182
q-80 80 -80 162q0 114 126 187t296 73q189 0 328 -98q67 88 202 88h140v-76zM1146 1134q-36 0 -62 26t-26 62t26 62t62 26t62 -26t26 -62t-26 -62t-62 -26z" />
    <glyph glyph-name="uni09400902" horiz-adv-x="476" 
d="M546 960h-218v-840q0 -33 42.5 -56.5t97.5 -23.5v-40h-460v40q56 0 98 23t42 57v840h-154v80h552v-80zM328 1060h-180v58q0 128 -58.5 217t-141.5 89q-67 0 -113.5 -51.5t-46.5 -120.5q0 -97 80 -192h-180q-35 28 -57.5 78.5t-22.5 103.5q0 101 86 170.5t214 69.5
q176 0 298 -105.5t122 -258.5v-58zM434 1256q-36 0 -62 26t-26 62t26 62t62 26t62 -26t26 -62t-26 -62t-62 -26z" />
    <glyph glyph-name="uni09400930094D" horiz-adv-x="476" 
d="M546 960h-218v-840q0 -33 42.5 -56.5t97.5 -23.5v-40h-460v40q56 0 98 23t42 57v840h-154v80h552v-80zM528 1396h-100q-100 0 -100 -114v-222h-180v48q0 136 -62 226t-158 90q-61 0 -100.5 -45t-39.5 -121q0 -109 80 -198h-180q-80 93 -80 184q0 104 90 171t210 67
q164 0 282 -94q71 84 198 84h140v-76z" />
    <glyph glyph-name="uni09400930094D0902" horiz-adv-x="476" 
d="M546 960h-218v-840q0 -33 42.5 -56.5t97.5 -23.5v-40h-460v40q56 0 98 23t42 57v840h-154v80h552v-80zM528 1396h-100q-100 0 -100 -114v-222h-180v48q0 136 -62 226t-158 90q-61 0 -100.5 -45t-39.5 -121q0 -109 80 -198h-180q-80 93 -80 184q0 104 90 171t210 67
q164 0 282 -94q71 84 198 84h140v-76zM524 1122q-36 0 -62 26t-26 62t26 62t62 26t62 -26t26 -62t-26 -62t-62 -26z" />
    <glyph glyph-name="uni0940_2" horiz-adv-x="476" 
d="M546 960h-218v-840q0 -33 42.5 -56.5t97.5 -23.5v-40h-460v40q56 0 98 23t42 57v840h-154v80h552v-80zM328 1060h-180q0 147 -157 255.5t-389 108.5q-164 0 -269 -65.5t-105 -164.5q0 -69 80 -134h-180q-80 65 -80 134q0 127 157 207.5t373 80.5q310 0 530 -126.5
t220 -295.5z" />
    <glyph glyph-name="uni0940_2_0902" horiz-adv-x="476" 
d="M546 960h-218v-840q0 -33 42.5 -56.5t97.5 -23.5v-40h-460v40q56 0 98 23t42 57v840h-154v80h552v-80zM328 1060h-180q0 147 -157 255.5t-389 108.5q-164 0 -269 -65.5t-105 -164.5q0 -69 80 -134h-180q-80 65 -80 134q0 127 157 207.5t373 80.5q310 0 530 -126.5
t220 -295.5zM386 1270q-36 0 -62 26t-26 62t26 62t62 26t62 -26t26 -62t-26 -62t-62 -26z" />
    <glyph glyph-name="uni0940_2_0930094D" horiz-adv-x="476" 
d="M546 960h-218v-840q0 -33 42.5 -56.5t97.5 -23.5v-40h-460v40q56 0 98 23t42 57v840h-154v80h552v-80zM568 1416h-120q-70 0 -115 -43t-45 -111q0 -59 60 -202h-200q-4 154 -164 259t-376 105q-160 0 -270 -67t-110 -163q0 -30 23.5 -69t56.5 -65h-180q-33 26 -56.5 65
t-23.5 69q0 119 154.5 203.5t375.5 84.5q323 0 544 -138q22 74 83 111t143 37h220v-76z" />
    <glyph glyph-name="uni0940_2_0930094D0902" horiz-adv-x="476" 
d="M546 960h-218v-840q0 -33 42.5 -56.5t97.5 -23.5v-40h-460v40q56 0 98 23t42 57v840h-154v80h552v-80zM568 1416h-120q-70 0 -115 -43t-45 -111q0 -59 60 -202h-200q-4 154 -164 259t-376 105q-160 0 -270 -67t-110 -163q0 -30 23.5 -69t56.5 -65h-180q-33 26 -56.5 65
t-23.5 69q0 119 154.5 203.5t375.5 84.5q323 0 544 -138q22 74 83 111t143 37h220v-76zM506 1136q-36 0 -62 26t-26 62t26 62t62 26t62 -26t26 -62t-26 -62t-62 -26z" />
    <glyph glyph-name="uni0941_2" horiz-adv-x="0" 
d="M-768 -300h180q24 -68 114 -104t206 -36q105 0 182.5 41t77.5 99q0 80 -80 80q-32 0 -59.5 -23t-40.5 -57h-180q21 63 98.5 101.5t199.5 38.5q101 0 171.5 -47t70.5 -93q0 -82 -130.5 -141t-309.5 -59q-188 0 -328 55.5t-172 144.5z" />
    <glyph glyph-name="uni0942_2" horiz-adv-x="0" 
d="M312 -500h-140q-22 127 -106.5 208.5t-193.5 81.5q-73 0 -126.5 -38t-53.5 -92q0 -40 21.5 -70t48.5 -30q28 0 49 28t21 72h160q0 -66 -71 -113t-169 -47q-80 0 -140 48t-60 112q0 74 92.5 127t227.5 53q183 0 298.5 -98t141.5 -242z" />
    <glyph glyph-name="uni0941_3" horiz-adv-x="0" 
d="M-908 -300h180q24 -68 114 -104t206 -36q105 0 182.5 41t77.5 99q0 36 -22 58t-58 22q-44 0 -72 -23.5t-28 -56.5h-180q22 58 99.5 94t180.5 36q96 0 178 -40.5t82 -109.5q0 -74 -130.5 -127t-309.5 -53q-188 0 -328 55.5t-172 144.5z" />
    <glyph glyph-name="uni0942_3" horiz-adv-x="0" 
d="M252 -500h-140q-33 123 -126.5 201.5t-213.5 78.5q-59 0 -99.5 -35.5t-40.5 -84.5q0 -40 21.5 -70t48.5 -30q28 0 49 28t21 72h160q-12 -70 -81 -115t-159 -45q-81 0 -140.5 44t-59.5 106q0 74 81 127t199 53q163 0 294 -90t186 -240z" />
    <glyph glyph-name="uni0935Below" horiz-adv-x="0" 
d="M-112 -520h-326v34q35 0 62.5 13t27.5 33v52q-90 -78 -248 -78q-111 0 -190.5 60.5t-79.5 145.5q0 83 79.5 143.5t190.5 60.5q160 0 248 -76v186h146v-494q0 -20 27.5 -33t62.5 -13v-34zM-348 -352v184q-70 52 -164 52q-69 0 -118.5 -42.5t-49.5 -101.5
q0 -63 53.5 -103.5t124.5 -40.5q69 0 154 52z" />
    <glyph glyph-name="uni092FAlt" horiz-adv-x="1084" 
d="M1154 960h-218v-840q0 -33 42.5 -56.5t97.5 -23.5v-40h-460v40q56 0 98 23t42 57v180q-57 -66 -136.5 -103t-163.5 -37q-149 0 -254.5 88.5t-105.5 211.5h80q65 0 112.5 40.5t47.5 99.5q0 60 -46 100t-114 40h-238v60h298q118 0 199 -58.5t81 -141.5q0 -74 -71 -127
t-169 -53q0 -73 64.5 -126.5t155.5 -53.5q66 0 136 38t124 102v580h-848v80h1246v-80z" />
    <glyph glyph-name="uni0930094DHalf" horiz-adv-x="580" 
d="M650 960h-656v80h656v-80zM620 460h-320q-111 0 -195.5 61.5t-84.5 158.5h180q21 -62 76.5 -101t123.5 -39h220v-80z" />
    <glyph glyph-name="uni0932Alt" horiz-adv-x="1360" 
d="M1430 960h-382v-164q120 -21 204 -125t84 -251q0 -143 -102.5 -246.5t-245.5 -103.5q-108 0 -176 90l28 40q52 -50 112 -50q84 0 135 86t51 194q0 109 -59 194.5t-151 85.5q-85 0 -143.5 -67.5t-58.5 -162.5h-56q0 98 -58 164t-144 66q-92 0 -151 -85.5t-59 -194.5
q0 -108 51 -194t135 -86q60 0 112 50l28 -40q-65 -90 -176 -90q-143 0 -245.5 103.5t-102.5 246.5q0 157 100.5 268.5t245.5 111.5q101 0 180 -48t112 -132q25 62 73 103.5t119 62.5v174h-896v80h1436v-80z" />
    <glyph glyph-name="uni0915094D0930" horiz-adv-x="1620" 
d="M742 306v384q-83 100 -220 100q-105 0 -172.5 -84.5t-67.5 -205.5q0 -118 69 -204t171 -86q53 0 112 24q22 13 108 72zM1062 0h-460v40q56 0 98 23t42 57v104q-374 -304 -690 -304l-10 120q167 0 440 100q-156 0 -268 106t-112 254q0 149 110.5 254.5t269.5 105.5
q138 0 260 -100v200h-748v80h1696v-80h-768v-180q98 80 260 80q160 0 270 -104t110 -256q0 -151 -111.5 -255.5t-268.5 -104.5q-119 0 -220 80l20 50q69 -60 160 -60q99 0 169.5 85.5t70.5 204.5q0 121 -69.5 205.5t-170.5 84.5q-143 0 -220 -90v-580q0 -33 42.5 -56.5
t97.5 -23.5v-40zM44 0z" />
    <glyph glyph-name="uni0916094D0930" horiz-adv-x="1720" 
d="M1392 300v380q-49 130 -220 130q-109 0 -184.5 -90.5t-75.5 -219.5q0 -135 76.5 -232.5t183.5 -97.5q136 0 220 130zM1132 100q-128 0 -218 58q-200 -162 -398.5 -250t-363.5 -88l-10 120q189 0 390 74q-136 13 -240 116q-210 210 -280 210l20 60q110 -40 180 -40
q128 0 214 101.5t86 238.5q0 85 -54 156t-146 104h-318v80h1796v-80h-218v-834q0 -39 39.5 -62.5t100.5 -23.5v-40h-460v40q61 0 100.5 22.5t39.5 63.5v84q-116 -110 -260 -110zM1392 780v180h-960q113 -30 186.5 -112.5t73.5 -187.5q0 -145 -105.5 -247.5t-254.5 -102.5
q158 -191 362 -208q75 25 156 98q-59 61 -88.5 136t-29.5 164q0 157 116.5 268.5t283.5 111.5q138 0 260 -100z" />
    <glyph glyph-name="uni0917094D0930" horiz-adv-x="1264" 
d="M344 621q-53 0 -87 -57.5t-34 -123.5q0 -64 34 -122t87 -58q51 0 86 54t35 126t-34 126.5t-87 54.5zM934 961h-510q153 -28 256.5 -130.5t103.5 -230.5q0 -166 -129 -282.5t-311 -116.5q-123 0 -212 71t-89 172q0 98 79 172t191 74q106 0 174 -75t68 -175h8q41 47 41 160
q0 101 -58 185.5t-150 130t-132 45.5h-270v79h1338v-79h-218v-840q0 -37 43.5 -58.5t95.5 -21.5v-41h-458v41q51 0 95 20t44 60v151q-429 -344 -768 -344l-10 119q339 0 778 307v607zM842 10z" />
    <glyph glyph-name="uni091C094D0930" horiz-adv-x="1334" 
d="M1002 244q-203 -164 -403.5 -254t-366.5 -90l-10 120q171 0 366 76.5t414 229.5v404h-324q84 -31 132 -96t48 -144q0 -121 -102.5 -200.5t-237.5 -79.5q-180 0 -320 162t-160 398h60q31 -183 136.5 -306.5t233.5 -123.5q85 0 147.5 55t62.5 135q0 83 -69.5 141.5
t-170.5 58.5h-100v60h664v170h-1008v80h1406v-80h-218v-840q0 -33 42.5 -56.5t97.5 -23.5v-40h-460v40q56 0 98 23t42 57v124z" />
    <glyph glyph-name="uni091D094D0930" horiz-adv-x="1444" 
d="M1514 960h-218v-840q0 -33 42.5 -56.5t97.5 -23.5v-40h-460v40q56 0 98 23t42 57v116q-124 -86 -250 -96l-10 120q148 0 260 34v106h-280q8 -29 8 -60q0 -107 -104.5 -173.5t-235.5 -66.5h-60q99 -80 200 -80q52 0 120 40l20 -40q-97 -80 -220 -80q-106 0 -197.5 34.5
t-152.5 95.5q-132 132 -180 150v40h260q70 -100 190 -100q76 0 128 47t52 121q0 58 -46 100t-110 42q-18 0 -90 -5t-114 -5q-88 0 -159 51.5t-71 128.5q0 81 87 130.5t223 49.5h172v140h-562v80h1520v-80zM1116 460v500h-380v-230h-252q-100 0 -150 -27.5t-50 -82.5
q0 -29 35.5 -53.5t86.5 -24.5q30 0 105 8t113 8q70 0 118 -24.5t74 -73.5h300z" />
    <glyph glyph-name="uni0924094D0930" horiz-adv-x="1143" 
d="M813 541l-629 -461l-51 59l412 301q-56 146 -141 222.5t-171 76.5q-78 0 -180 -90l-39 41q126 150 320 150q100 0 199.5 -70t181.5 -211l98 72v330h-819v79h1219v-79h-220v-840q0 -33 41 -56.5t101 -23.5v-41h-461v41q64 0 101.5 23.5t37.5 56.5v420z" />
    <glyph glyph-name="uni0926094D0930" horiz-adv-x="1047" 
d="M420 41q-147 6 -256 112t-109 250q0 150 140.5 258.5t341.5 108.5h159v191h-702v79h1120v-79h-237v-261h-340q-123 0 -212 -82.5t-89 -203.5q0 -119 89 -202t212 -83q60 0 122 25t127 75q11 65 11 70q0 157 -41 201h190q31 -62 31 -160q0 -137 -70.5 -259t-189.5 -192
l-31 31q62 78 90 240q-21 -23 -53.5 -45t-60 -34t-45.5 -17.5t-31 -8t-131 -59.5l-295 -143l-60 118zM768 800z" />
    <glyph glyph-name="uni092Q094D0930" horiz-adv-x="1038" 
d="M710 960h-400v-500q0 -80 60 -140t140 -60q65 0 132.5 66.5t67.5 133.5v500zM60 0v120q270 0 398 70q-141 26 -234.5 110.5t-93.5 189.5v470h-136v80h1114v-80h-218v-840q0 -33 42.5 -56.5t97.5 -23.5v-40h-460v40q56 0 98 23t42 57v190q-123 -147 -294.5 -228.5
t-355.5 -81.5zM34 0z" />
    <glyph glyph-name="uni092B094D0930" horiz-adv-x="1382" 
d="M622 960h-300v-420q0 -64 42 -112t98 -48q91 0 160 60v520zM496 314q-48 -14 -94 -14q-107 0 -183.5 68.5t-76.5 171.5v420h-148v80h1458v-80h-650v-180q68 60 180 60q156 0 248 -92t92 -248q0 -153 -98.5 -246.5t-251.5 -93.5q-73 0 -130 40l10 40q40 -20 90 -20
q74 0 127 81t53 199q0 115 -52 192.5t-128 77.5q-80 0 -140 -70v-580q0 -33 42.5 -56.5t97.5 -23.5v-40h-460v40q56 0 98 23t42 57v220q-177 -171 -329.5 -265.5t-250.5 -94.5l-10 120q186 0 464 214zM42 0z" />
    <glyph glyph-name="uni092C094D0930" horiz-adv-x="1068" 
d="M650 230l-300 450q-70 -59 -70 -210q0 -122 78 -197t174 -75q65 0 118 32zM740 720q-78 54 -171 54q-82 0 -159 -44l298 -466l32 20v436zM20 20q188 0 420 102q-145 16 -242.5 117.5t-97.5 240.5q0 149 110.5 254.5t269.5 105.5q163 0 260 -80v200h-746v80h1144v-80h-218
v-840q0 -33 42.5 -56.5t97.5 -23.5v-40h-460v40q56 0 98 23t42 57v96q-201 -152 -385.5 -234t-324.5 -82zM42 0z" />
    <glyph glyph-name="uni092D094D0930" horiz-adv-x="1182" 
d="M454 840q0 75 -32 127.5t-78 52.5t-78 -52.5t-32 -127.5q0 -65 32 -112.5t78 -47.5t78 47.5t32 112.5zM454 500h-60q-59 0 -99.5 -41.5t-40.5 -98.5q0 -53 29.5 -91.5t70.5 -38.5t70.5 34.5t29.5 85.5v150zM854 500h-220v-120q0 -97 -84.5 -158.5t-195.5 -61.5
q-109 0 -194.5 57t-85.5 147q0 82 75 139t185 57h120v120q-52 -60 -140 -60q-95 0 -162.5 64.5t-67.5 155.5q0 99 79.5 169.5t190.5 70.5q115 0 197.5 -75t82.5 -185v-260h220v400h-180v80h578v-80h-218v-840q0 -33 42.5 -56.5t97.5 -23.5v-40h-460v40q56 0 98 23t42 57v124
q-203 -164 -403.5 -254t-366.5 -90l-10 120q171 0 366 76.5t414 229.5v174z" />
    <glyph glyph-name="uni092E094D0930" horiz-adv-x="1154" 
d="M1224 960h-218v-840q0 -33 42.5 -56.5t97.5 -23.5v-40h-460v40q56 0 98 23t42 57v164q-203 -164 -403.5 -254t-366.5 -90l-10 120q343 0 780 306v144h-260v-70q0 -103 -76.5 -171.5t-183.5 -68.5q-102 0 -181 53t-79 137t79.5 137t180.5 53h80v380h-392v80h1230v-80z
M826 580v380h-260v-380h260zM386 400v110h-50q-48 0 -79 -39t-31 -91q0 -48 23.5 -84t56.5 -36q34 0 57 40t23 100z" />
    <glyph glyph-name="uni0935094D0930" horiz-adv-x="1066" 
d="M738 280v420q-81 60 -190 60q-111 0 -190.5 -82.5t-79.5 -197.5q0 -113 68 -196.5t172 -83.5q50 0 84 8zM1058 40v-40h-460v40q56 0 98 23t42 57v88q-382 -288 -700 -288l-10 120q170 0 382 86q-135 24 -223.5 123t-88.5 231q0 149 110.5 254.5t269.5 105.5
q163 0 260 -80v200h-744v80h1142v-80h-218v-840q0 -33 42.5 -56.5t97.5 -23.5zM40 0z" />
    <glyph glyph-name="uni0938094D0930" horiz-adv-x="1492" 
d="M1562 960h-218v-840q0 -33 42.5 -56.5t97.5 -23.5v-40h-460v40q56 0 98 23t42 57v234q-208 -134 -460 -134l-10 120q259 0 470 106v94q-74 44 -204 44q-110 0 -206 -54q-26 -99 -131 -167.5t-279 -82.5q7 -1 134 -118q74 -68 128 -68t118 48l22 -46q-91 -100 -206 -100
q-124 0 -220 96q-154 154 -306 208l20 60q68 -40 150 -40q147 0 258.5 84.5t111.5 215.5q0 141 -110.5 240.5t-269.5 99.5h-180v80h1568v-80zM1164 590v370h-750q147 -39 239.5 -121.5t100.5 -178.5q60 22 116 22q180 0 294 -92z" />
    <glyph glyph-name="uni0939094D0930" horiz-adv-x="1006" 
d="M1074 960h-244v-230h-280q-69 0 -114.5 -23t-45.5 -57q0 -38 50 -80q56 10 110 10q185 0 292.5 -70.5t107.5 -189.5q0 -104 -83.5 -172t-196.5 -68q-103 0 -180 60v50q45 -30 110 -30q69 0 119.5 47.5t50.5 112.5h-244v60h234q-23 59 -84 99.5t-146 40.5
q-120 0 -210 -67.5t-90 -172.5q0 -123 117.5 -211.5t282.5 -88.5q219 0 320 80l-60 -140h-270q-285 0 -427.5 85t-142.5 255q0 94 72.5 168.5t183.5 107.5q-106 37 -106 124q0 58 61 99t149 41h240v160h-656v80h1080v-80z" />
    <glyph glyph-name="uni0936094D0930Alt" horiz-adv-x="1096" 
d="M1166 960h-218v-840q0 -33 42.5 -56.5t97.5 -23.5v-40h-460v40q56 0 98 23t42 57v292l-418 118q-136 -80 -300 -80v90q170 0 240 40q-106 39 -173 116.5t-67 163.5q0 105 90 172.5t210 67.5t210 -67.5t90 -172.5q0 -89 -63.5 -166t-166.5 -114l348 -100v480h-120v80h518
v-80zM350 626q120 100 120 240q0 69 -34 114.5t-86 45.5q-51 0 -85.5 -48t-34.5 -112q0 -63 32 -128.5t88 -111.5z" />
    <glyph glyph-name="uni0915094D0915" horiz-adv-x="1488" 
d="M644 680q-103 60 -200 60q-83 0 -151.5 -35t-68.5 -95q0 -50 71.5 -85t168.5 -35q75 0 180 60v130zM644 360q-102 60 -180 60q-89 0 -164.5 -35t-75.5 -95q0 -49 60 -84.5t140 -35.5q115 0 220 60v130zM824 680v-540q0 -40 30 -70t70 -30v-40h-380v40q41 0 70.5 28.5
t29.5 71.5v40q-112 -80 -260 -80q-118 0 -219 51.5t-101 138.5q0 61 52 110t128 70q-81 30 -130.5 74.5t-49.5 85.5q0 74 90 127t220 53q158 0 270 -80v230h-650v80h1564v-80h-734v-230q137 80 280 80q111 0 205.5 -46t94.5 -124q0 -57 -88.5 -102.5t-221.5 -57.5
q149 -12 249.5 -64t100.5 -116q0 -63 -84.5 -106.5t-205.5 -43.5q-224 0 -310 50l20 40q82 -30 140 -30q96 0 168 29t72 71q0 53 -92 95t-238 55v40q142 12 236 52t94 88q0 42 -60 66t-130 24q-144 0 -230 -50zM644 420v70l-100 -40zM1468 0z" />
    <glyph glyph-name="uni0915094D0924" horiz-adv-x="1758" 
d="M1828 960h-768v-180q98 80 260 80q160 0 270 -104t110 -256q0 -151 -111.5 -255.5t-268.5 -104.5q-105 0 -170 50l20 40q48 -30 110 -30q105 0 172.5 90t67.5 210q0 113 -68 196.5t-172 83.5q-152 0 -220 -80v-580q0 -33 42.5 -56.5t97.5 -23.5v-40h-460v40q56 0 98 23
t42 57v550q-97 80 -270 80q-129 0 -219.5 -91.5t-90.5 -218.5q0 -74 60 -153.5t160 -136.5l-110 -100q-131 76 -210.5 180t-79.5 210q0 108 51 192.5t139 117.5h-290v70h580q156 0 280 -70v210h-886v80h1834v-80zM56 0z" />
    <glyph glyph-name="uni0915094D0932" horiz-adv-x="1496" 
d="M670 450v302q-56 56 -188 56q-101 0 -174.5 -60.5t-73.5 -143.5q0 -86 74 -150t174 -64q107 0 188 60zM980 178q-81 0 -139.5 -51t-58.5 -127h-54q0 76 -56.5 127t-135.5 51q-84 0 -141 -64.5t-57 -153.5t52.5 -152.5t123.5 -63.5q58 0 106 40l26 -30q-57 -70 -166 -70
q-134 0 -232 80t-98 190q0 126 97.5 210t230.5 84q111 0 192 -50v200q-94 -70 -246 -70q-154 0 -266 81.5t-112 194.5q0 116 110 199t268 83q139 0 246 -78v152h-676v80h1572v-80h-724v-140q91 66 246 66q152 0 257 -82.5t105 -199.5q0 -114 -107 -195t-255 -81
q-125 0 -208 60l18 40q57 -38 152 -38q85 0 146.5 62.5t61.5 151.5q0 85 -66.5 144.5t-161.5 59.5q-137 0 -188 -50v-552q71 42 162 42q135 0 229.5 -85.5t94.5 -208.5q0 -111 -80.5 -190.5t-193.5 -79.5q-110 0 -168 70l24 30q56 -40 94 -40q69 0 112.5 64.5t43.5 145.5
q0 93 -52.5 158.5t-127.5 65.5z" />
    <glyph glyph-name="uni0915094D0935" horiz-adv-x="1468" 
d="M644 680q-103 60 -200 60q-83 0 -151.5 -35t-68.5 -95q0 -50 71.5 -85t168.5 -35q75 0 180 60v130zM644 360q-102 60 -180 60q-89 0 -164.5 -35t-75.5 -95q0 -49 60 -84.5t140 -35.5q115 0 220 60v130zM824 680v-540q0 -40 30 -70t70 -30v-40h-380v40q41 0 70.5 28.5
t29.5 71.5v40q-112 -80 -260 -80q-118 0 -219 51.5t-101 138.5q0 61 52 110t128 70q-81 30 -130.5 74.5t-49.5 85.5q0 74 90 127t220 53q158 0 270 -80v230h-650v80h1544v-80h-714v-230q124 70 230 70q152 0 256 -96t104 -234q0 -133 -102.5 -226.5t-247.5 -93.5
q-130 0 -220 50l20 40q83 -30 133 -30q92 0 164.5 79t72.5 191q0 105 -69.5 177.5t-170.5 72.5q-83 0 -170 -50zM644 420v70l-100 -40z" />
    <glyph glyph-name="uni0917094D0928" horiz-adv-x="1911" 
d="M344 621q-53 0 -87 -57.5t-34 -123.5q0 -64 34 -122t87 -58q51 0 86 54t35 126t-34 126.5t-87 54.5zM1581 961h-1157q153 -28 256.5 -130.5t103.5 -230.5q0 -166 -129 -282.5t-311 -116.5q-123 0 -212 71t-89 172q0 98 79 172t191 74q106 0 174 -75t68 -175h8
q41 47 41 160q0 101 -58 185.5t-150 130t-132 45.5h-270v79h1987v-79h-220v-840q0 -29 38 -54.5t104 -25.5v-41h-461v41q64 0 101.5 23.5t37.5 56.5v438q-337 0 -510 -102q119 -4 200 -88t81 -203q0 -105 -101 -180.5t-239 -75.5q-136 0 -238 74.5t-102 181.5
q0 210 249 337.5t660 127.5v330zM1012 -31q65 0 112 58.5t47 142.5q0 97 -44.5 163t-114.5 66q-68 0 -114 -67t-46 -162q0 -81 48.5 -141t111.5 -60zM842 0z" />
    <glyph glyph-name="uni0919094D0915" horiz-adv-x="1260" 
d="M1128 624q-36 0 -62 26t-26 62t26 62t62 26t62 -26t26 -62t-26 -62t-62 -26zM34 480l36 60q119 -83 235 -124.5t229 -41.5q123 0 184.5 25t61.5 75q0 43 -35.5 64.5t-106.5 21.5h-220q-131 0 -196.5 36t-65.5 108q0 70 99 113t259 43h144v100h-664v80h1336v-80h-480v-170
q-72 10 -276 10q-107 0 -160.5 -23t-53.5 -69q0 -44 42 -66t126 -22h202q122 0 183 -35t61 -105q0 -68 -87.5 -117t-230.5 -63v-88q58 40 168 40q103 0 173.5 -59.5t70.5 -144.5t-70.5 -144.5t-173.5 -59.5q-69 0 -144 36v44q40 -12 80 -12q63 0 105.5 39.5t42.5 96.5
t-38.5 96.5t-95.5 39.5q-86 0 -118 -16v-324q0 -23 21.5 -41.5t50.5 -18.5v-24h-314v24q31 0 51.5 17.5t20.5 42.5v40q-67 -40 -168 -40t-172.5 60.5t-71.5 143.5t71.5 143.5t172.5 60.5q100 0 168 -60v106q-114 11 -227 56.5t-225 125.5zM486 -62v220q-47 26 -104 26
q-61 0 -104.5 -40.5t-43.5 -95.5t37.5 -95.5t90.5 -40.5q62 0 124 26zM562 296z" />
    <glyph glyph-name="uni0919094D0916" horiz-adv-x="1260" 
d="M1128 624q-36 0 -62 26t-26 62t26 62t62 26t62 -26t26 -62t-26 -62t-62 -26zM34 480l36 60q119 -83 235 -124.5t229 -41.5q123 0 184.5 25t61.5 75q0 43 -35.5 64.5t-106.5 21.5h-220q-131 0 -196.5 36t-65.5 108q0 70 99 113t259 43h144v100h-664v80h1336v-80h-480v-170
q-72 10 -276 10q-107 0 -160.5 -23t-53.5 -69q0 -44 42 -66t126 -22h202q122 0 183 -35t61 -105q0 -43 -38 -80v-516q0 -23 19.5 -41.5t46.5 -18.5v-24h-294v24q25 0 41.5 17.5t16.5 42.5v42q-51 -42 -120 -42q-82 0 -136 42q-71 -126 -176 -126q-56 0 -111 37t-87 95
q-37 67 -90 84l20 34q23 -12 52 -12q55 0 93.5 45.5t38.5 112.5q0 64 -18 112t-84 100q-57 32 -114 72zM766 246v72q-90 -22 -204 -22q-117 0 -230 34q90 -75 90 -154q0 -53 -42.5 -96.5t-105.5 -55.5q21 -59 57.5 -97.5t70.5 -38.5q18 0 41.5 17.5t38.5 46.5
q-46 48 -46 118q0 85 57.5 145.5t138.5 60.5q99 0 134 -30zM766 -22v216q-28 14 -60 14q-49 0 -83.5 -37.5t-34.5 -90.5q0 -52 36 -90t82 -38q32 0 60 26z" />
    <glyph glyph-name="uni0919094D0917" horiz-adv-x="1260" 
d="M1128 624q-36 0 -62 26t-26 62t26 62t62 26t62 -26t26 -62t-26 -62t-62 -26zM34 480l36 60q119 -83 235 -124.5t229 -41.5q123 0 184.5 25t61.5 75q0 43 -35.5 64.5t-106.5 21.5h-220q-131 0 -196.5 36t-65.5 108q0 70 99 113t259 43h144v100h-664v80h1336v-80h-480v-170
q-72 10 -276 10q-107 0 -160.5 -23t-53.5 -69q0 -44 42 -66t126 -22h202q122 0 183 -35t61 -105q0 -94 -158 -148v-418q0 -23 21.5 -41.5t50.5 -18.5v-24h-316v24q31 0 51.5 17.5t20.5 42.5v384q-23 -2 -82 -2q-78 0 -150 14q144 -112 144 -226q0 -101 -100.5 -163.5
t-227.5 -62.5q-78 0 -135 46.5t-57 117.5q0 63 51.5 107.5t126.5 44.5q103 0 156 -86q0 181 -126 274q-108 46 -210 118zM248 122q-30 0 -51 -33t-21 -77q0 -45 21.5 -77.5t50.5 -32.5q28 0 49 31t21 79t-20.5 79t-49.5 31z" />
    <glyph glyph-name="uni0919094D0918" horiz-adv-x="1260" 
d="M1128 624q-36 0 -62 26t-26 62t26 62t62 26t62 -26t26 -62t-26 -62t-62 -26zM34 480l36 60q119 -83 235 -124.5t229 -41.5q123 0 184.5 25t61.5 75q0 43 -35.5 64.5t-106.5 21.5h-220q-131 0 -196.5 36t-65.5 108q0 70 99 113t259 43h144v100h-664v80h1336v-80h-480v-170
q-72 10 -276 10q-107 0 -160.5 -23t-53.5 -69q0 -44 42 -66t126 -22h202q122 0 183 -35t61 -105q0 -111 -210 -162v-474q0 -23 21.5 -41.5t50.5 -18.5v-24h-314v24q31 0 51.5 17.5t20.5 42.5v32q-97 -68 -234 -68q-91 0 -156.5 42t-65.5 102q0 48 50.5 87t127.5 57
q-69 6 -121.5 38.5t-52.5 81.5q0 79 192 114q-154 46 -300 150zM594 -78v374h-32q-59 0 -92 4q-146 -28 -146 -104q0 -31 30.5 -54.5t73.5 -23.5h46v-44h-42q-45 0 -76.5 -28.5t-31.5 -69.5q0 -44 32 -76t76 -32q83 0 162 54z" />
    <glyph glyph-name="uni0919094D092E" horiz-adv-x="1260" 
d="M1128 624q-36 0 -62 26t-26 62t26 62t62 26t62 -26t26 -62t-26 -62t-62 -26zM34 480l36 60q119 -83 235 -124.5t229 -41.5q123 0 184.5 25t61.5 75q0 43 -35.5 64.5t-106.5 21.5h-220q-131 0 -196.5 36t-65.5 108q0 70 99 113t259 43h144v100h-664v80h1336v-80h-480v-170
q-72 10 -276 10q-107 0 -160.5 -23t-53.5 -69q0 -44 42 -66t126 -22h202q122 0 183 -35t61 -105q0 -60 -70 -106v-500q0 -27 32.5 -43.5t69.5 -16.5v-34h-378v34q37 0 69.5 16.5t32.5 43.5v210h-256v-76q0 -70 -70 -119t-164 -49q-84 0 -154 41.5t-70 108.5q0 62 71.5 106
t172.5 44h42v200q-137 47 -268 140zM730 140v170q-74 -14 -168 -14q-53 0 -88 4v-160h256zM302 -36v120q-51 0 -87.5 -31.5t-36.5 -78.5q0 -104 62 -104q28 0 45 29t17 65z" />
    <glyph glyph-name="uni0919094D0915094D0937" horiz-adv-x="1260" 
d="M1128 624q-36 0 -62 26t-26 62t26 62t62 26t62 -26t26 -62t-26 -62t-62 -26zM34 480l36 60q119 -83 235 -124.5t229 -41.5q123 0 184.5 25t61.5 75q0 43 -35.5 64.5t-106.5 21.5h-220q-131 0 -196.5 36t-65.5 108q0 70 99 113t259 43h144v100h-664v80h1336v-80h-480v-170
q-72 10 -276 10q-107 0 -160.5 -23t-53.5 -69q0 -44 42 -66t126 -22h202q122 0 183 -35t61 -105q0 -76 -108 -128v-552q0 -23 21.5 -41.5t50.5 -18.5v-24h-316v24q31 0 51.5 17.5t20.5 42.5v258h-332q-63 0 -108.5 -44.5t-45.5 -105.5q0 -54 36 -94t82 -40q37 0 63.5 21.5
t26.5 48.5v88h184q-14 -37 -14 -72v-84q0 -70 -72 -119t-170 -49v36q29 0 50.5 20.5t21.5 51.5v40q-48 -40 -128 -40q-102 0 -176 58t-74 136q0 69 59.5 123.5t148.5 66.5q-74 10 -124 42t-50 76t55.5 83.5t154.5 44.5q-124 46 -248 134zM312 308q-27 0 -48.5 -26.5
t-21.5 -61.5q0 -43 21.5 -75.5t48.5 -32.5q28 0 49 31t21 77q0 37 -20.5 62.5t-49.5 25.5zM694 112v192q-56 -8 -132 -8q-47 0 -84 4q74 -39 74 -90q0 -57 -104 -98h246z" />
    <glyph glyph-name="uni091A094D091A" horiz-adv-x="1872" 
d="M1942 961h-218v-840q0 -37 43.5 -58.5t96.5 -21.5v-41h-459v41q56 0 97.5 22t41.5 58v98q-55 -64 -152.5 -101.5t-207.5 -37.5q-197 0 -322 137q-144 -137 -358 -137q-167 0 -283.5 100.5t-116.5 239.5q0 95 82.5 185t210.5 134h-372v62h639v-62h-39q-136 0 -229 -85
t-93 -201q0 -121 87.5 -207t211.5 -86q115 0 232 94q-50 87 -50 166q0 95 80 184t209 135h-348v62h739v-62h-159q-134 0 -228 -94.5t-94 -224.5q0 -106 87 -183t214 -77q70 0 141 35.5t119 95.5v670h-1550v79h1948v-79z" />
    <glyph glyph-name="uni091B094D0935" horiz-adv-x="1084" 
d="M1154 960h-268v-56q68 -17 110 -72.5t42 -131.5q0 -91 -75.5 -173.5t-196.5 -126.5v-476q0 -19 26.5 -34.5t63.5 -15.5v-34h-326v34q36 0 63 15.5t27 34.5v62q-87 -86 -248 -86q-107 0 -183.5 55.5t-76.5 132.5q0 78 75 133t185 55q161 0 248 -86v170q-46 -4 -76 -4
q-201 0 -342.5 54t-141.5 158q0 44 60 79t150 41q-68 6 -120 38.5t-52 81.5q0 50 78 85t194 35q76 0 126 -24l-18 -54q-32 12 -72 12q-142 0 -142 -56q0 -43 43.5 -69.5t98.5 -26.5h54v-64h-64q-56 0 -93 -25t-37 -61q0 -65 75.5 -105.5t200.5 -40.5q96 0 175.5 39.5
t116.5 106.5h-50q-89 0 -152.5 52.5t-63.5 123.5q0 58 39 104.5t103 63.5v56h-716v80h1160v-80zM864 604q18 35 18 96q0 67 -26 113.5t-64 46.5q-31 0 -49.5 -39t-18.5 -85q0 -53 28 -92.5t68 -39.5h44zM620 26v124q-73 58 -174 58q-72 0 -120 -35.5t-48 -84.5t50 -84.5
t118 -35.5q85 0 174 58z" />
    <glyph glyph-name="uni091C094D091C" horiz-adv-x="2134" 
d="M2204 960h-218v-840q0 -33 42.5 -56.5t97.5 -23.5v-40h-460v40q56 0 98 23t42 57v540h-390q69 -32 114.5 -112t45.5 -168q0 -140 -99.5 -240t-240.5 -100q-256 0 -390 224q-36 -95 -124.5 -159.5t-205.5 -64.5q-194 0 -332 185.5t-138 444.5h60q17 -191 116 -335.5
t244 -144.5q93 0 156.5 64t63.5 156q0 105 -69.5 177.5t-170.5 72.5h-40v60h1400v240h-1812v80h2210v-80zM666 660q93 -33 146.5 -108.5t53.5 -171.5v-26q105 -164 310 -164q93 0 156.5 64t63.5 156q0 122 -70 186t-170 64h-490z" />
    <glyph glyph-name="uni091E094D091A" horiz-adv-x="1266" 
d="M938 378v402h-256q0 -106 -97 -173t-223 -67q-191 0 -260 120l50 40q70 -80 150 -80q81 0 140.5 52.5t59.5 127.5t-55.5 127.5t-134.5 52.5q-92 0 -160 -80l-50 40q100 120 260 120q124 0 222 -60.5t98 -159.5h256v120h-168v80h566v-80h-218v-840q0 -33 42.5 -56.5
t97.5 -23.5v-40h-460v40q56 0 98 23t42 57v156q-93 -103 -188 -154.5t-192 -51.5q-127 0 -217.5 63.5t-90.5 150.5q0 28 18 66l-230 -70l-20 80l780 220l20 -70l-310 -90q-90 -43 -90 -110q0 -57 50.5 -98.5t119.5 -41.5q99 0 192.5 55t157.5 153z" />
    <glyph glyph-name="uni091E094D091C" horiz-adv-x="1208" 
d="M882 510v270h-200q0 -106 -97 -173t-223 -67q-191 0 -260 120l50 40q70 -80 150 -80q81 0 140.5 52.5t59.5 127.5t-55.5 127.5t-134.5 52.5q-92 0 -160 -80l-50 40q100 120 260 120q124 0 222 -60.5t98 -159.5h200v120h-180v80h576v-80h-216v-820q0 -40 30 -70t70 -30
v-40h-380v40q41 0 70.5 28.5t29.5 71.5v300l-330 -50q90 -52 135 -112t45 -128q0 -97 -79.5 -163.5t-190.5 -66.5q-168 0 -285.5 134.5t-134.5 325.5l70 10q26 -151 106.5 -250.5t173.5 -99.5q61 0 105.5 47.5t44.5 112.5q0 56 -25 98.5t-75 71.5l-100 -10v70z" />
    <glyph glyph-name="uni091F094D091F" horiz-adv-x="896" 
d="M189 411q-125 71 -125 189q0 108 117.5 184t282.5 76h120v100h-590v80h972v-80h-202v-200q-110 40 -260 40q-101 0 -170.5 -58.5t-69.5 -141.5q0 -73 70.5 -126.5t169.5 -53.5q219 0 340 100l20 -50q-68 -56 -100 -66v-240q-100 46 -250 46q-103 0 -176.5 -56.5
t-73.5 -133.5q0 -73 70.5 -126.5t169.5 -53.5q209 0 340 110l20 -50q-164 -140 -400 -140q-165 0 -282.5 76t-117.5 184q0 112 130.5 192t269.5 68l120 -10v80q-56 -10 -116 -10q-154 0 -279 71z" />
    <glyph glyph-name="uni091F094D0920" horiz-adv-x="896" 
d="M162 430q-98 72 -98 170q0 108 117.5 184t282.5 76h120v100h-590v80h972v-80h-202v-200q-110 40 -260 40q-101 0 -170.5 -58.5t-69.5 -141.5q0 -73 70.5 -126.5t169.5 -53.5q219 0 340 100l20 -50q-95 -82 -282 -118v-112q124 -22 202 -89.5t78 -150.5
q0 -109 -116.5 -184.5t-283.5 -75.5q-165 0 -282.5 76t-117.5 184q0 107 104.5 173.5t235.5 66.5v104q-142 14 -240 86zM472 200q-87 0 -148.5 -58.5t-61.5 -141.5q0 -80 60 -140t140 -60q81 0 140.5 58.5t59.5 141.5t-55.5 141.5t-134.5 58.5zM468 340z" />
    <glyph glyph-name="uni091F094D092F" horiz-adv-x="2088" 
d="M1760 400v560h-924v-160h324q118 0 199 -46.5t81 -113.5q0 -74 -71 -127t-169 -53q0 -81 70.5 -140.5t169.5 -59.5q93 0 179 37.5t141 102.5zM2158 960h-218v-840q0 -33 42.5 -56.5t97.5 -23.5v-40h-460v40q56 0 98 23t42 57v210q-69 -80 -158.5 -125t-181.5 -45
q-164 0 -282 106t-118 254h80q67 0 113.5 31.5t46.5 78.5t-46.5 78.5t-113.5 31.5h-264v-60q-150 40 -260 40q-137 0 -235.5 -89.5t-98.5 -230.5q0 -138 110 -229t264 -91q151 0 310 130l30 -30q-72 -86 -178 -133t-222 -47q-199 0 -349.5 116t-150.5 294q0 159 137.5 269.5
t332.5 110.5q74 0 130 -10v180h-662v80h2164v-80zM976 0z" />
    <glyph glyph-name="uni091F094D0935" horiz-adv-x="916" 
d="M199.5 466.5q-131.5 70.5 -131.5 167.5q0 100 111.5 170t268.5 70h196v86h-650v80h992v-80h-176v-158h-272q-123 0 -194.5 -46.5t-71.5 -119.5q0 -83 81.5 -130.5t214.5 -47.5q165 0 294 100l30 -62q-48 -38 -138 -70v-502q0 -19 26.5 -34.5t63.5 -15.5v-34h-326v34
q36 0 63 15.5t27 34.5v62q-87 -86 -248 -86q-110 0 -190 68t-80 160q0 93 78.5 160.5t191.5 67.5q161 0 248 -86v130q-46 -4 -92 -4q-185 0 -316.5 70.5zM608 26v204q-74 58 -164 58q-71 0 -119.5 -47.5t-48.5 -112.5t52.5 -112.5t125.5 -47.5q65 0 154 58z" />
    <glyph glyph-name="uni0920094D0920" horiz-adv-x="938" 
d="M1008 960h-302v-120h-90q104 -31 177 -98.5t73 -141.5q0 -148 -160 -202v-108h-90q114 -34 182 -101t68 -149q0 -109 -116.5 -184.5t-283.5 -75.5q-165 0 -282.5 76t-117.5 184q0 104 116 177t284 73h60v70q-46 -8 -58 -8q-165 0 -283.5 73.5t-118.5 174.5
q0 108 117.5 184t282.5 76q12 -1 60 -10v110h-532v80h1014v-80zM466 800q-83 0 -141.5 -59.5t-58.5 -140.5q0 -80 60 -140t140 -60q81 0 140.5 58.5t59.5 141.5q0 84 -58 142t-142 58zM466 240q-83 0 -141.5 -59.5t-58.5 -140.5q0 -80 60 -140t140 -60q81 0 140.5 58.5
t59.5 141.5q0 84 -58 142t-142 58z" />
    <glyph glyph-name="uni0920094D092F" horiz-adv-x="2168" 
d="M1840 400v560h-1060v-140h460q118 0 199 -46.5t81 -113.5q0 -81 -70.5 -140.5t-169.5 -59.5q0 -81 76.5 -140.5t183.5 -59.5q84 0 163.5 37t136.5 103zM2238 960h-218v-840q0 -33 42.5 -56.5t97.5 -23.5v-40h-460v40q56 0 98 23t42 57v200q-68 -80 -153 -120t-187 -40
q-165 0 -282.5 100.5t-117.5 239.5h80q67 0 113.5 37.5t46.5 92.5t-46.5 92.5t-113.5 37.5h-480q129 -47 204.5 -144.5t75.5 -215.5q0 -167 -135.5 -283.5t-324.5 -116.5q-188 0 -324 118t-136 282q0 165 134.5 282.5t325.5 117.5h80v160h-606v80h2244v-80zM520 740
q-121 0 -200.5 -102.5t-79.5 -237.5t79.5 -237.5t200.5 -102.5t200.5 102.5t79.5 237.5t-79.5 237.5t-200.5 102.5z" />
    <glyph glyph-name="uni0921094D0921" horiz-adv-x="882" 
d="M952 960h-224v-168h-280q-43 0 -76.5 -27t-33.5 -67t33.5 -67t76.5 -27h160q94 0 157 -42.5t63 -105.5q0 -78 -106.5 -133t-253.5 -55l-80 6q-50 0 -50 -38q0 -33 34 -53.5t76 -20.5h160q94 0 157 -42.5t63 -103.5q0 -79 -104.5 -134.5t-255.5 -55.5q-105 0 -221.5 50.5
t-218.5 139.5l40 52q84 -73 180.5 -115.5t179.5 -42.5q72 0 126 31t54 75q0 36 -28 60t-72 24h-160q-80 0 -140 43.5t-60 104.5q0 53 40 82q-112 68 -160 126l30 42q174 -146 370 -146q75 0 127.5 30t52.5 74q0 36 -33.5 60t-86.5 24h-140q-81 0 -140.5 46.5t-59.5 111.5
t59.5 111.5t140.5 46.5h200v104h-554v80h958v-80z" />
    <glyph glyph-name="uni0921094D0922" horiz-adv-x="912" 
d="M982 960h-228v-150h-264q-56 0 -101 -24t-45 -66q0 -41 34 -65.5t82 -24.5h174q91 0 165.5 -41t74.5 -109q0 -81 -118 -138v-190q-112 28 -252 28q-114 0 -192 -59.5t-78 -140.5t64.5 -140.5t159.5 -59.5q46 0 66 4q-90 58 -90 126q0 60 68.5 95t151.5 35q79 0 139.5 -38
t60.5 -102q0 -75 -118 -127.5t-282 -52.5q-173 0 -296.5 76t-123.5 184t123.5 184t296.5 76q37 0 100 -6v66q-46 -4 -90 -4q-105 0 -219.5 46.5t-210.5 127.5l40 50q164 -140 380 -140q91 0 145.5 28t54.5 72q0 38 -35.5 64t-80.5 26h-178q-93 0 -149.5 42t-56.5 108
q0 62 64 106t170 44h166v90h-560v80h988v-80zM734 -100q0 41 -22 70.5t-58 29.5q-70 0 -70 -100q0 -68 40 -104q110 26 110 104z" />
    <glyph glyph-name="uni0921094D092F" horiz-adv-x="2014" 
d="M1686 400v560h-880v-160h280q118 0 199 -46.5t81 -113.5q0 -74 -71 -127t-169 -53q0 -81 70.5 -140.5t169.5 -59.5q93 0 179 37.5t141 102.5zM2084 960h-218v-840q0 -33 42.5 -56.5t97.5 -23.5v-40h-460v40q56 0 98 23t42 57v210q-69 -80 -158.5 -125t-181.5 -45
q-164 0 -282 106t-118 254h80q67 0 113.5 31.5t46.5 78.5t-46.5 78.5t-113.5 31.5h-550q-64 0 -107 -29t-43 -71q0 -41 44.5 -70.5t105.5 -29.5h130q117 0 198.5 -66.5t81.5 -163.5q0 -128 -121 -219t-289 -91q-137 0 -261.5 107.5t-188.5 282.5l50 30q51 -141 160 -230.5
t240 -89.5q95 0 162.5 58.5t67.5 141.5q0 76 -46 128t-114 52h-120q-115 0 -197.5 53.5t-82.5 126.5q0 58 77.5 99t192.5 41h210v160h-632v80h2090v-80z" />
    <glyph glyph-name="uni0922094D0922" horiz-adv-x="904" 
d="M974 960h-218v-200q-58 40 -260 40q-97 0 -163.5 -59.5t-66.5 -140.5q0 -80 60 -140t140 -60q52 0 80 10q-45 21 -72.5 54t-27.5 66q0 60 68.5 95t151.5 35q77 0 128.5 -40t51.5 -100q0 -40 -25.5 -74.5t-66.5 -53.5v-210q-76 28 -258 28q-97 0 -163.5 -57.5
t-66.5 -138.5q0 -78 60 -136t140 -58q82 0 100 10q-41 23 -70.5 58t-29.5 62q0 54 59.5 92t140.5 38q77 0 128.5 -40t51.5 -100q0 -82 -114.5 -131t-265.5 -49q-164 0 -282 79.5t-118 190.5q0 104 131 177.5t269 62.5l120 -10v80q-109 -12 -148 -12q-131 0 -251.5 80.5
t-120.5 191.5q0 108 117.5 184t282.5 76q74 0 120 -10v110h-592v80h980v-80zM660 610q-31 0 -52.5 -28.5t-21.5 -71.5q0 -41 22.5 -70.5t51.5 -29.5q31 0 53.5 29.5t22.5 70.5q0 43 -21.5 71.5t-54.5 28.5zM666 30q-28 0 -49 -29t-21 -67q0 -37 21.5 -65.5t48.5 -28.5
q28 0 49 27t21 67q0 42 -20.5 69t-49.5 27z" />
    <glyph glyph-name="uni0922094D092F" horiz-adv-x="2156" 
d="M1828 400v560h-960v-160h360q118 0 199 -46.5t81 -113.5q0 -74 -71 -127t-169 -53q0 -81 70.5 -140.5t169.5 -59.5q93 0 179 37.5t141 102.5zM2226 960h-218v-840q0 -33 42.5 -56.5t97.5 -23.5v-40h-460v40q56 0 98 23t42 57v210q-69 -80 -158.5 -125t-181.5 -45
q-164 0 -282 106t-118 254h80q67 0 113.5 31.5t46.5 78.5t-46.5 78.5t-113.5 31.5h-610q-134 0 -227 -100.5t-93 -239.5q0 -137 86 -238.5t214 -101.5q-50 35 -80 90t-30 110q0 107 91.5 183.5t218.5 76.5q121 0 205.5 -75.5t84.5 -184.5q0 -114 -103.5 -187t-236.5 -73
h-150q-196 0 -338 118t-142 282q0 165 140.5 282.5t339.5 117.5h150v160h-694v80h2232v-80zM678 440q-72 0 -121 -56.5t-49 -133.5t49 -133.5t121 -56.5t121 56.5t49 133.5t-49 133.5t-121 56.5z" />
    <glyph glyph-name="uni0926094D0917" horiz-adv-x="1022" 
d="M266 110q-97 55 -154.5 142.5t-57.5 177.5q0 143 122.5 246.5t297.5 103.5h220v180h-700v80h1098v-80h-218v-240h-280q-141 0 -240.5 -84.5t-99.5 -205.5q0 -119 94.5 -204.5t225.5 -85.5q101 0 200 80q-22 120 -80 200h200q60 -102 60 -210q0 -93 -50 -176t-140 -134
h-90q110 95 110 260q-107 -91 -278 -91q-75 0 -152 21q74 -85 74 -184q0 -73 -50.5 -116.5t-135.5 -43.5q-162 0 -162 118q0 51 49 84.5t113 33.5q22 0 46 -4q10 18 10 42q0 45 -32 90zM768 800z" />
    <glyph glyph-name="uni0926094D0918" horiz-adv-x="1322" 
d="M368 358q-8 38 -8 52q0 153 123.5 261.5t296.5 108.5h220v180h-1006v80h1398v-80h-212v-240h-280q-143 0 -246.5 -88.5t-103.5 -211.5t97.5 -211.5t232.5 -88.5q107 0 190 70q0 147 -70 230h200q50 -87 50 -220q0 -181 -180 -310l-90 10q78 79 90 230q-83 -100 -260 -100
q-60 0 -82 8q26 -47 26 -116q0 -105 -69.5 -181.5t-170.5 -76.5q-80 0 -140 56t-60 132q0 80 16 124q-58 -64 -152 -64q-59 0 -102.5 46.5t-43.5 109.5q0 99 95.5 181.5t240.5 108.5zM662 48q-93 25 -168 92t-108 154q-92 -21 -157 -69t-65 -107q0 -43 22 -74.5t52 -31.5
q62 0 86 42l30 52l74 -20q-46 -37 -46 -122q0 -58 42 -102t98 -44q61 0 104.5 48.5t43.5 119.5q0 32 -8 62zM768 800z" />
    <glyph glyph-name="uni0926094D0926" horiz-adv-x="1026" 
d="M766 80q-99 -80 -250 -80q-177 0 -323.5 82t-146.5 218q0 103 81.5 181.5t198.5 88.5q-56 15 -93 54.5t-37 85.5q0 60 68.5 95t151.5 35h230v120h-652v80h1102v-80h-270v-180h-320q-49 0 -84.5 -26t-35.5 -64t35.5 -64t84.5 -26h200v-60h-200q-111 0 -190.5 -70.5
t-79.5 -169.5q0 -95 82 -163.5t220 -68.5q147 0 238 72q10 37 10 100q0 130 -60 200h200q48 -84 48 -172q0 -121 -67 -235t-181 -193l-40 60q59 71 80 180z" />
    <glyph glyph-name="uni0926094D0927" horiz-adv-x="1378" 
d="M728 48q-144 33 -228 142.5t-84 219.5q0 153 123.5 261.5t296.5 108.5h220v180h-1062v80h1454v-80h-212v-240h-280q-143 0 -246.5 -88.5t-103.5 -211.5t97.5 -211.5t232.5 -88.5q107 0 190 70q0 147 -70 230h200q50 -87 50 -220q0 -181 -180 -310l-90 10q78 79 90 230
q-83 -100 -260 -100q-64 0 -92 8q16 -44 16 -86q0 -117 -71.5 -199.5t-172.5 -82.5q-81 0 -133.5 67.5t-52.5 158.5q0 46 6 80q-85 -102 -184 -102q-60 0 -104 50t-44 116q0 112 59 193t143 81q31 0 51.5 -17.5t20.5 -42.5t-15.5 -41.5t-36.5 -16.5q-23 0 -39.5 15.5
t-16.5 36.5q-66 -39 -66 -106q0 -56 40 -96t96 -40q69 0 100 48l40 62l64 -30q-46 -46 -46 -108q0 -59 44.5 -102.5t105.5 -43.5q62 0 106 63.5t44 152.5zM768 800z" />
    <glyph glyph-name="uni0926094D0928" horiz-adv-x="1118" 
d="M382 90q-110 29 -181 118.5t-71 201.5q0 153 117.5 261.5t282.5 108.5h240v180h-776v80h1194v-80h-238v-240h-350q-121 0 -205.5 -91.5t-84.5 -218.5t88.5 -218.5t211.5 -91.5q129 0 250 100q10 56 10 80q0 153 -40 200h190q30 -55 30 -160q0 -139 -69.5 -259
t-190.5 -191l-30 30q60 73 96 240q-43 -52 -134.5 -86t-201.5 -34l-238 -30q44 -50 44 -112q0 -75 -54.5 -128.5t-131.5 -53.5q-71 0 -122.5 56.5t-51.5 135.5q0 68 50.5 120.5t127.5 59.5zM142 -8q-27 0 -46.5 -33t-19.5 -75q0 -43 19.5 -75.5t46.5 -32.5q31 0 49.5 33.5
t18.5 74.5t-18.5 74.5t-49.5 33.5zM768 800z" />
    <glyph glyph-name="uni0926094D092C" horiz-adv-x="1300" 
d="M122 263q88 97 222 119l-2 38q0 144 125.5 252t314.5 108h170v180h-958v80h1376v-80h-218v-240h-310q-131 0 -225.5 -87t-94.5 -213q0 -119 94.5 -204.5t225.5 -85.5q113 0 220 90q-22 120 -80 200h190q60 -102 60 -210q0 -96 -49 -179.5t-131 -130.5h-90q110 95 110 260
q-131 -110 -290 -110q0 -138 -110 -236t-264 -98q-150 0 -262 91.5t-112 228.5q0 130 88 227zM718 50q-135 24 -234 96.5t-130 177.5q-100 -34 -138 -94l470 -286q32 56 32 106zM636 -118l-464 286q-20 -48 -20 -86q0 -117 91 -195.5t215 -78.5q102 0 178 74zM768 800z" />
    <glyph glyph-name="uni0926094D092D" horiz-adv-x="1442" 
d="M828 46q-155 42 -254.5 146.5t-99.5 227.5q0 149 122.5 254.5t315.5 105.5h202v180h-1120v80h1518v-80h-218v-240h-292q-151 0 -239.5 -87t-88.5 -213q0 -129 88.5 -214.5t231.5 -85.5q113 0 202 82q-13 125 -82 218h200q60 -102 60 -210q0 -96 -49 -179.5t-131 -130.5
h-100q110 94 110 230q-93 -90 -230 -90l-232 -198q16 -32 16 -66q0 -69 -52.5 -118.5t-125.5 -49.5q-52 0 -91 31t-39 79q0 66 62 116l54 44l-70 74q-27 -46 -88 -87.5t-136 -41.5q-103 0 -172 67.5t-69 161.5q0 101 72.5 164t164.5 63q113 0 190 -87l226 -254zM190 193
q-14 0 -23 -13t-9 -32q0 -68 72.5 -150.5t114.5 -82.5q14 0 23 14t9 33q0 68 -73.5 149.5t-113.5 81.5zM768 800z" />
    <glyph glyph-name="uni0926094D092E" horiz-adv-x="1300" 
d="M1370 960h-218v-840q0 -33 42.5 -56.5t97.5 -23.5v-40h-460v40q56 0 98 23t42 57v160h-280v-60q0 -96 -77 -158t-183 -62q-107 0 -183.5 53.5t-76.5 126.5q0 74 75 127t185 53h80v160h-260q-91 0 -155.5 47.5t-64.5 112.5q0 66 63 113t157 47h260v120h-518v80h1376v-80z
M972 360v600h-280v-180h-320q-60 0 -100 -29.5t-40 -70.5t42 -70.5t98 -29.5h140v40h180v-260h280zM512 160v120h-80q-35 0 -57.5 -30t-22.5 -70q0 -55 23.5 -97.5t56.5 -42.5q34 0 57 34t23 86z" />
    <glyph glyph-name="uni0926094D092F" horiz-adv-x="1218" 
d="M910 290q-186 -220 -480 -220q-156 0 -268 79.5t-112 190.5q0 89 71.5 159.5t178.5 90.5q-69 12 -114.5 46.5t-45.5 73.5q0 58 58.5 94t131.5 36h240v120h-576v80h1294v-80h-218v-840q0 -33 42.5 -56.5t97.5 -23.5v-40h-440v40q56 0 98 23t42 57v170zM910 360v600h-160
v-180h-280q-60 0 -100 -23t-40 -57q0 -38 41.5 -64t98.5 -26h220v-60h-220q-95 0 -162.5 -62.5t-67.5 -147.5q0 -73 82.5 -126.5t197.5 -53.5q224 0 390 200z" />
    <glyph glyph-name="uni0926094D0935" horiz-adv-x="1210" 
d="M268 332q-10 40 -10 88q0 149 128.5 254.5t311.5 105.5h170v180h-874v80h1286v-80h-212v-240h-340q-119 0 -204.5 -88.5t-85.5 -211.5q0 -126 94.5 -213t225.5 -87q128 0 210 70q0 147 -70 230h190q50 -87 50 -220q0 -199 -170 -300h-90q90 77 90 220
q-122 -100 -270 -100q0 -127 -94.5 -218.5t-225.5 -91.5q-142 0 -244 100t-102 238q0 91 64.5 170.5t171.5 113.5zM648 26q-126 10 -225.5 83t-140.5 181q-56 -25 -87 -79.5t-31 -124.5q0 -102 78.5 -171t187.5 -69q89 0 153.5 53.5t64.5 126.5zM768 800z" />
    <glyph glyph-name="uni0928094D0928" horiz-adv-x="1216" 
d="M1286 960h-218v-840q0 -33 42.5 -56.5t97.5 -23.5v-40h-460v40q56 0 98 23t42 57v254l-488 -148q86 -43 86 -154q0 -76 -49 -127t-123 -51q-76 0 -134 57.5t-58 132.5q0 67 32.5 110.5t97.5 63.5l636 192v118l-492 150q16 -32 16 -76q0 -74 -52.5 -132t-123.5 -58
q-75 0 -128.5 56.5t-53.5 131.5q0 81 56.5 137.5t137.5 56.5q15 0 38 -4l602 -186v316h-894v80h1292v-80zM250 770q-44 0 -73 -43.5t-29 -96.5q0 -42 23 -75t59 -33q40 0 65 44t25 100q0 52 -17.5 78t-52.5 26zM292 200q-39 0 -64.5 -30.5t-25.5 -71.5q0 -49 35.5 -90.5
t82.5 -41.5q39 0 58.5 23.5t19.5 70.5q0 55 -29.5 97.5t-76.5 42.5z" />
    <glyph glyph-name="uni092A094D0924" horiz-adv-x="1038" 
d="M1108 960h-218v-840q0 -33 42.5 -56.5t97.5 -23.5v-40h-460v40q56 0 98 23t42 57v210q-87 120 -230 120q-103 0 -176.5 -70.5t-73.5 -169.5q0 -58 41.5 -120t108.5 -110l-100 -90q-90 53 -145 136.5t-55 173.5q0 105 73.5 187.5t186.5 112.5q-92 34 -151 105t-59 155v200
h-136v80h1114v-80zM710 420v540h-400v-220q0 -81 41.5 -145.5t108.5 -64.5q155 0 250 -110z" />
    <glyph glyph-name="uni092A094D0932" horiz-adv-x="1250" 
d="M722 960h-400v-308q0 -70 60 -122t140 -52q81 0 140.5 50.5t59.5 123.5v308zM1054 14q0 93 -52.5 158.5t-127.5 65.5q-81 0 -139.5 -51t-58.5 -127h-54q0 76 -56.5 127t-135.5 51q-84 0 -141 -64.5t-57 -153.5t52.5 -152.5t123.5 -63.5q58 0 106 40l26 -30
q-57 -70 -166 -70q-134 0 -232 84t-98 198q0 117 95.5 199.5t232.5 82.5q103 0 172 -35t104 -105q22 54 74 90v266q-93 -116 -260 -116q-127 0 -223.5 73.5t-96.5 186.5v292h-148v80h1326v-80h-418v-652q135 -2 227.5 -87.5t92.5 -206.5q0 -111 -80.5 -190.5t-193.5 -79.5
q-110 0 -168 70l24 30q56 -40 94 -40q69 0 112.5 64.5t43.5 145.5z" />
    <glyph glyph-name="uni092B094D0932" horiz-adv-x="1362" 
d="M1432 960h-662v-140q71 50 180 50q155 0 247.5 -71.5t92.5 -192.5q0 -124 -101.5 -193t-258.5 -69q-75 0 -120 30l10 32q34 -16 90 -16q73 0 126.5 62.5t53.5 153.5q0 87 -52.5 148.5t-127.5 61.5q-83 0 -140 -56v-498q62 36 160 36q131 0 225.5 -86t94.5 -208
q0 -111 -80.5 -190.5t-193.5 -79.5q-110 0 -168 70l24 30q56 -40 94 -40q69 0 112.5 64.5t43.5 145.5q0 93 -52.5 158.5t-127.5 65.5q-81 0 -139.5 -51t-58.5 -127h-54q0 76 -56.5 127t-135.5 51q-84 0 -141 -64.5t-57 -153.5t52.5 -152.5t123.5 -63.5q58 0 106 40l26 -30
q-57 -70 -166 -70q-134 0 -232 84t-98 198q0 117 95.5 199.5t232.5 82.5q110 0 190 -50v272q-69 -82 -220 -82q-103 0 -181.5 51.5t-78.5 134.5v336h-116v80h1438v-80zM590 626v334h-300v-336q0 -47 44.5 -80.5t105.5 -33.5q59 0 104.5 32.5t45.5 83.5z" />
    <glyph glyph-name="uni0932094D0932" horiz-adv-x="1408" 
d="M1478 960h-410v-118q111 -18 183.5 -101.5t72.5 -194.5q0 -78 -43 -145.5t-111 -102.5q74 -43 114 -112t40 -150q0 -117 -86 -198.5t-206 -81.5q-110 0 -176 72l28 32q60 -40 96 -40q67 0 116.5 62t49.5 154t-54 162t-136 70q-84 0 -147 -52.5t-63 -131.5h-56
q0 77 -58.5 130.5t-143.5 53.5q-88 0 -149 -66.5t-61 -157.5q0 -90 52.5 -157t133.5 -67q64 0 112 40l28 -32q-66 -72 -176 -72q-139 0 -243.5 81.5t-104.5 206.5q0 86 44.5 151t133.5 109q-89 41 -133.5 103.5t-44.5 146.5q0 121 100.5 208.5t245.5 87.5q103 0 180 -38
t112 -106q41 93 192 128v126h-916v80h1484v-80zM746 594h-56q0 77 -58.5 130.5t-143.5 53.5q-88 0 -149 -66.5t-61 -157.5q0 -74 37 -133.5t95 -80.5q111 0 192 -38t116 -106q26 66 109.5 105t200.5 39q59 24 88.5 75.5t29.5 130.5q0 92 -54 162t-136 70q-84 0 -147 -52.5
t-63 -131.5z" />
    <glyph glyph-name="uni0936094D091A" horiz-adv-x="1368" 
d="M1438 960h-218v-840q0 -33 42.5 -56.5t97.5 -23.5v-40h-460v40q56 0 98 23t42 57v130q-134 -160 -390 -160q-121 0 -208.5 60t-87.5 146q0 10 6 34l-300 -130l-30 70l550 240l100 -40l-70 -30q-24 -10 -52 -42.5t-28 -67.5q0 -56 54 -98t126 -42q99 0 187 37.5t143 102.5
v148q-314 0 -620 112q-158 -90 -330 -90l-10 110q210 0 280 40q-106 39 -173 116.5t-67 163.5q0 105 90 172.5t210 67.5t210 -67.5t90 -172.5q0 -89 -63.5 -166t-166.5 -114q264 -94 550 -94v404h-140v80h538v-80zM420 690q120 100 120 240q0 77 -34 128.5t-86 51.5
q-50 0 -85 -54t-35 -126q0 -63 32 -128.5t88 -111.5z" />
    <glyph glyph-name="u0936094D0928" horiz-adv-x="1818" 
d="M1888 960h-218v-840q0 -33 42.5 -56.5t97.5 -23.5v-40h-460v40q56 0 98 23t42 57v420q-70 58 -196 58q-148 0 -194 -28q94 -34 152 -113.5t58 -176.5q0 -125 -110.5 -212.5t-269.5 -87.5q-157 0 -268.5 88.5t-111.5 211.5q0 81 50 158l-250 92q-158 -90 -290 -90l-10 100
q170 0 240 40q-106 39 -173 116.5t-67 163.5q0 105 90 172.5t210 67.5t210 -67.5t90 -172.5q0 -89 -63.5 -166t-166.5 -114l242 -72q85 77 212.5 119.5t275.5 42.5q254 0 340 -50v340h-790v80h1188v-80zM350 620q120 100 120 240q0 77 -34 128.5t-86 51.5q-50 0 -85 -54
t-35 -126q0 -63 32 -128.5t88 -111.5zM930 540q-82 0 -141 -77t-59 -183q0 -99 59.5 -169.5t140.5 -70.5q83 0 141.5 69.5t58.5 170.5q0 110 -58.5 185t-141.5 75z" />
    <glyph glyph-name="uni0936094D0932" horiz-adv-x="1918" 
d="M1988 960h-390v-170q116 -23 186 -128.5t70 -241.5q0 -143 -86.5 -246.5t-205.5 -103.5q-108 0 -176 90l28 40q64 -50 96 -50q68 0 117 78t49 192q0 121 -55.5 205.5t-134.5 84.5q-87 0 -148.5 -66.5t-61.5 -163.5h-56q0 98 -58 164t-144 66q-92 0 -151 -85.5t-59 -194.5
q0 -108 51 -194t135 -86q60 0 112 50l28 -40q-65 -90 -176 -90q-135 0 -231.5 105.5t-96.5 254.5l-280 100q-158 -90 -290 -90l-10 100q170 0 240 40q-106 39 -173 116.5t-67 163.5q0 105 90 172.5t210 67.5t210 -67.5t90 -172.5q0 -89 -63.5 -166t-166.5 -114l222 -66
q19 119 108.5 202.5t205.5 83.5q101 0 180 -48t112 -132q43 118 192 160v180h-736v80h1284v-80zM350 620q120 100 120 240q0 77 -34 128.5t-86 51.5q-50 0 -85 -54t-35 -126q0 -63 32 -128.5t88 -111.5z" />
    <glyph glyph-name="uni0936094D0935" horiz-adv-x="1614" 
d="M1684 960h-218v-840q0 -33 42.5 -56.5t97.5 -23.5v-40h-460v40q56 0 98 23t42 57v110q-107 -90 -260 -90q-142 0 -247 87.5t-127 204.5l-302 98q-158 -90 -290 -90l-10 100q170 0 240 40q-106 39 -173 116.5t-67 163.5q0 105 90 172.5t210 67.5t210 -67.5t90 -172.5
q0 -89 -63.5 -166t-166.5 -114l226 -66q5 142 114.5 244t265.5 102q138 0 260 -100v200h-592v80h990v-80zM350 620q120 100 120 240q0 77 -34 128.5t-86 51.5q-50 0 -85 -54t-35 -126q0 -63 32 -128.5t88 -111.5zM1286 300v390q-83 100 -220 100q-105 0 -172.5 -84.5
t-67.5 -205.5q0 -118 69 -204t171 -86q113 0 220 90z" />
    <glyph glyph-name="uni0937094D091F" horiz-adv-x="1640" 
d="M280 860v-420q0 -99 63 -169.5t157 -70.5q55 0 100.5 25.5t59.5 64.5zM1320 960h-1020l426 -618q-6 42 -6 58q0 158 151 269t369 111h80v180zM1710 960h-210v-280q-108 40 -220 40q-157 0 -267.5 -93.5t-110.5 -234.5q0 -132 106 -217t272 -85q178 0 310 130l30 -40
q-72 -86 -178 -133t-222 -47q-153 0 -282 70t-184 184q-55 -64 -133.5 -99t-160.5 -35q-149 0 -254.5 94.5t-105.5 225.5v520h-106v80h1716v-80zM664 0z" />
    <glyph glyph-name="uni0937094D0920" horiz-adv-x="1758" 
d="M280 860v-420q0 -99 63 -169.5t157 -70.5q55 0 100.5 25.5t59.5 64.5zM1320 960h-1020l400 -582v22q0 167 145.5 283.5t354.5 116.5h120v160zM1828 960h-328v-200h-60q121 -43 190.5 -140.5t69.5 -219.5q0 -165 -146.5 -282.5t-353.5 -117.5q-155 0 -282 64.5t-182 179.5
q-115 -124 -276 -124q-149 0 -254.5 94.5t-105.5 225.5v520h-106v80h1834v-80zM1200 740q-134 0 -227 -100.5t-93 -239.5t93 -239.5t227 -100.5t227 100.5t93 239.5t-93 239.5t-227 100.5zM640 0z" />
    <glyph glyph-name="uni0939094D0923" horiz-adv-x="1122" 
d="M232 220q0 -126 94.5 -213t225.5 -87q112 0 180 40l-40 -100h-140q-207 0 -353.5 103.5t-146.5 246.5q0 115 78.5 205.5t201.5 124.5q-140 48 -140 130q0 76 73.5 123t166.5 47h220v120h-658v80h1198v-80h-360v-190h-300q-90 0 -135 -26.5t-45 -79.5q0 -45 40 -104
q74 20 190 20q183 0 311.5 -70t128.5 -170v-236q0 -26 18 -48t40 -22v-34h-284v34q23 0 41.5 21.5t18.5 48.5v282q0 86 -82 110v-240q0 -63 -58 -105.5t-136 -42.5t-136 44t-58 104v228q-77 -31 -115.5 -97t-38.5 -167zM640 236v272q-24 8 -60 8t-60 -8v-272
q0 -25 18.5 -44.5t41.5 -19.5t41.5 19.5t18.5 44.5z" />
    <glyph glyph-name="uni0939094D0928" horiz-adv-x="1112" 
d="M232 210q0 -108 91 -199t229 -91q112 0 180 40l-40 -100h-140q-207 0 -353.5 103.5t-146.5 246.5q0 115 78.5 205.5t201.5 124.5q-140 48 -140 130q0 76 73.5 123t166.5 47h220v120h-658v80h1188v-80h-350v-190h-300q-90 0 -135 -26.5t-45 -79.5q0 -45 40 -104
q74 20 190 20q160 0 295 -65t135 -175v-256q0 -24 18 -42t42 -18v-24h-294v24q24 0 42 18t18 42v146q-58 88 -154 88q54 -37 54 -106t-56.5 -116.5t-137.5 -47.5q-79 0 -136.5 48.5t-57.5 115.5q0 71 58.5 122.5t141.5 51.5q181 0 288 -74v34q0 73 -77 123.5t-189 50.5
q-153 0 -246.5 -84t-93.5 -226zM554 342q-41 0 -65.5 -39.5t-24.5 -90.5q0 -53 23.5 -91.5t56.5 -38.5q42 0 71 37t29 93q0 51 -24.5 90.5t-65.5 39.5z" />
    <glyph glyph-name="uni0939094D092E" horiz-adv-x="1510" 
d="M222 310q0 -134 124 -232t296 -98q112 0 180 40l-40 -100h-140q-243 0 -416.5 120t-173.5 290q0 191 250 294q-50 14 -75 38t-25 58q0 58 68.5 99t171.5 41h200v100h-648v80h1586v-80h-218v-840q0 -33 42.5 -56.5t97.5 -23.5v-40h-460v40q56 0 98 23t42 57v300h-200v-60
q0 -98 -91.5 -159t-208.5 -61q-107 0 -183.5 53.5t-76.5 126.5q0 74 75 127t185 53h100q-9 48 -74 74t-146 26q-141 0 -240.5 -84.5t-99.5 -205.5zM1182 500v460h-360v-160h-280q-68 0 -114 -29t-46 -71q0 -16 20 -50q54 20 170 20q140 0 246.5 -45.5t153.5 -124.5h210z
M792 330v90h-70q-51 0 -85.5 -29.5t-34.5 -70.5q0 -49 28.5 -84.5t65.5 -35.5q43 0 69.5 39.5t26.5 90.5z" />
    <glyph glyph-name="uni0939094D092F" horiz-adv-x="1542" 
d="M234 300q0 -132 119 -226t301 -94q90 0 180 50l-40 -110h-218q-198 0 -360 105.5t-162 294.5q0 191 238 298q-49 21 -73.5 46.5t-24.5 55.5q0 58 68.5 99t171.5 41h220v100h-660v80h1618v-80h-218v-840q0 -33 42.5 -56.5t97.5 -23.5v-40h-460v40q56 0 98 23t42 57v150
q-66 -78 -152 -124t-168 -46q-157 0 -268.5 82t-111.5 198h80q64 0 112 34.5t48 85.5q0 52 -51.5 86t-128.5 34q-139 0 -239.5 -93t-100.5 -227zM1214 360v600h-380v-160h-280q-68 0 -114 -29t-46 -71q0 -16 20 -40q114 20 180 20q122 0 231 -45.5t109 -124.5
q0 -76 -73.5 -123t-166.5 -47q0 -64 60 -112t140 -48q217 0 320 180z" />
    <glyph glyph-name="uni0939094D0932" horiz-adv-x="1096" 
d="M232 200q0 -133 93.5 -226.5t226.5 -93.5q112 0 180 40l-40 -100h-140q-196 0 -348 103t-152 267q0 122 77 218.5t203 131.5q-140 48 -140 130q0 76 73.5 123t166.5 47h220v120h-658v80h1172v-80h-334v-190h-300q-90 0 -135 -26.5t-45 -79.5q0 -45 40 -104q74 20 190 20
q154 0 282 -65t128 -175v-246q0 -23 19.5 -41.5t46.5 -18.5v-34h-284v34q24 0 42 18t18 42v238q-49 -4 -79.5 -49.5t-30.5 -104.5h-44q0 65 -33.5 109.5t-82.5 44.5q-40 0 -69 -43t-29 -99q0 -58 34 -102t78 -44q48 0 84 36l18 -28q-51 -60 -132 -60q-92 0 -159 58.5
t-67 145.5q0 86 64.5 145t153.5 59q117 0 162 -92q27 71 132 80q-10 58 -82.5 95t-179.5 37q-139 0 -239.5 -93t-100.5 -227z" />
    <glyph glyph-name="uni0939094D0935" horiz-adv-x="1070" 
d="M232 200q0 -133 93.5 -226.5t226.5 -93.5q112 0 180 40l-40 -100h-140q-196 0 -348 103t-152 267q0 122 77 218.5t203 131.5q-140 48 -140 130q0 76 73.5 123t166.5 47h220v120h-658v80h1146v-80h-308v-190h-300q-90 0 -135 -26.5t-45 -79.5q0 -45 40 -104q74 20 190 20
q154 0 282 -65t128 -175v-296q0 -24 18 -42t42 -18v-24h-264v24q24 0 42 18t18 42v52q-55 -76 -192 -76q-99 0 -169.5 55.5t-70.5 132.5q0 87 69.5 147.5t170.5 60.5q126 0 192 -66q0 71 -80.5 120.5t-195.5 49.5q-139 0 -239.5 -93t-100.5 -227zM852 146v144
q-40 68 -136 68q-60 0 -101 -44.5t-41 -105.5q0 -55 42 -92.5t100 -37.5q68 0 136 68z" />
    <glyph glyph-name="uni0938094D0924094D0930" horiz-adv-x="2009" 
d="M1681 541l-618 -461l-62 59l410 301q-50 141 -135 220t-174 79q-98 0 -191 -80l-28 41q119 140 319 140q102 0 205 -71.5t174 -199.5l100 70v322h-1298q163 -30 266 -127t103 -213q0 -48 -11 -80q66 -58 170 -58q83 0 152 58l29 -80q-69 -62 -181 -62q-129 0 -198 62
q-44 -77 -144.5 -119.5t-216.5 -42.5q84 -100 154 -149.5t127 -49.5q58 0 110 39l21 -39q-121 -100 -232 -100q-55 0 -120 37.5t-140 112.5q-76 74 -141 111.5t-119 37.5l19 78q73 -33 153 -33q182 0 284.5 82t102.5 195q0 143 -117.5 241.5t-281.5 98.5h-178v79h2085v-79
h-217v-840q0 -33 41.5 -56.5t99.5 -23.5v-41h-461v41q51 0 95 20t44 60v420zM869 0z" />
    <glyph glyph-name="uni091C094D091CHalf" horiz-adv-x="1675" 
d="M1745 961h-1751v79h1751v-79zM1835 659h-420q72 -33 117 -113t45 -165q0 -139 -100.5 -239.5t-239.5 -100.5q-121 0 -223.5 57.5t-167.5 165.5q-36 -96 -124 -159.5t-206 -63.5q-195 0 -333 186.5t-138 442.5h61q19 -208 122.5 -344t238.5 -136q91 0 155 63t64 157
q0 106 -69.5 177.5t-170.5 71.5h-40v62h1429v-62zM866 354q109 -164 310 -164q95 0 158 66t63 154q0 116 -68 182.5t-174 66.5h-489q97 -33 148.5 -111t51.5 -167v-27zM1675 40z" />
    <glyph glyph-name="uni09260943" horiz-adv-x="930" 
d="M906 90v-90h-390q-213 0 -341.5 79.5t-128.5 210.5q0 106 91 187t229 93q-73 19 -121.5 59.5t-48.5 80.5q0 54 67.5 92t162.5 38h220v120h-652v80h1006v-80h-174v-180h-280q-69 0 -114.5 -23t-45.5 -57q0 -41 48 -70.5t112 -29.5h160v-60h-160q-127 0 -218.5 -66
t-91.5 -160q0 -92 91.5 -158t218.5 -66h360z" />
    <glyph glyph-name="uni09300941" horiz-adv-x="1320" 
d="M1390 960h-956q131 -48 215.5 -134.5t84.5 -185.5q0 -141 -122.5 -240.5t-297.5 -99.5q112 -90 194.5 -135t135.5 -45q32 0 63.5 15.5t62.5 46.5l46 -36q-53 -73 -123.5 -109.5t-158.5 -36.5q-65 0 -132.5 37.5t-137.5 112.5q-58 61 -120.5 103.5t-129.5 66.5l20 60
l150 -40q145 0 247.5 99.5t102.5 240.5q0 105 -67.5 183.5t-172.5 96.5h-300v80h1396v-80zM806 270l20 60q60 -16 76 -16q89 0 141.5 49.5t52.5 132.5q0 85 -54.5 134.5t-145.5 49.5q-42 0 -100 -30l-20 60q58 50 160 50q133 0 236.5 -73t103.5 -187t-103.5 -187t-236.5 -73
q-89 0 -130 30z" />
    <glyph glyph-name="uni09300942" horiz-adv-x="1360" 
d="M1430 960h-996q131 -48 215.5 -134.5t84.5 -185.5q0 -141 -122.5 -240.5t-297.5 -99.5q112 -90 194.5 -135t135.5 -45q32 0 63.5 15.5t62.5 46.5l46 -36q-53 -73 -123.5 -109.5t-158.5 -36.5q-65 0 -132.5 37.5t-137.5 112.5q-58 61 -120.5 103.5t-129.5 66.5l20 60
l150 -40q145 0 247.5 99.5t102.5 240.5q0 105 -67.5 183.5t-172.5 96.5h-300v80h1436v-80zM1174 70l-50 30q80 112 80 280q0 82 -48 146t-122 64q-51 0 -85.5 -35.5t-34.5 -84.5q0 -37 23.5 -63.5t56.5 -26.5q27 0 48.5 22.5t21.5 57.5l70 -10q0 -73 -56.5 -126.5
t-133.5 -53.5q-85 0 -147.5 59.5t-62.5 140.5q0 97 69.5 163.5t170.5 66.5q133 0 226.5 -93.5t93.5 -226.5q0 -165 -120 -310z" />
    <glyph glyph-name="uni09390943" horiz-adv-x="970" 
d="M234 300q0 -131 123.5 -225.5t296.5 -94.5q90 0 180 50l-30 -110h-246q-227 0 -365.5 117.5t-138.5 282.5q0 166 210 284q-28 14 -54 48t-26 60q0 65 72 106.5t154 41.5h244v100h-660v80h1046v-80h-206v-160h-284q-66 0 -115 -29t-49 -71q0 -13 18 -40q42 20 170 20
q154 0 257 -40t103 -110q0 -55 -47.5 -82.5t-142.5 -27.5q-64 0 -107 -29t-43 -71q0 -49 54 -84.5t126 -35.5h80v-60h-160q-105 0 -192.5 46.5t-87.5 123.5q0 76 80.5 123t179.5 47q80 0 80 40q0 44 -51.5 72t-128.5 28q-140 0 -240 -88t-100 -232z" />
    <glyph glyph-name="uni0928Comp" horiz-adv-x="0" 
d="M-234 272l-454 -72q50 -41 50 -92q0 -66 -48.5 -111t-115.5 -45q-65 0 -112.5 46.5t-47.5 109.5t40 110.5t102 57.5l586 92v-96zM-788 152q-22 0 -41 -14.5t-19 -35.5q0 -20 15.5 -31t36.5 -11q23 0 39.5 16.5t16.5 33.5t-14.5 29.5t-33.5 12.5z" />
    <glyph glyph-name="uni0918094D0930" horiz-adv-x="1120" 
d="M793 961h-291q-56 0 -103 -51.5t-47 -118.5t36.5 -108.5t82.5 -41.5h61v-61h-57q-80 0 -141.5 -50t-61.5 -131q0 -82 71 -139t187 -57q77 0 142.5 31.5t120.5 95.5v631zM43 -100l-8 120q164 0 381 86q-157 13 -250.5 87.5t-93.5 189.5q0 83 66 145t173 82v11
q-69 6 -114 53t-45 106q0 52 42 101.5t117 79.5h-317v79h1196v-79h-217v-840q0 -34 40 -57t99 -23v-41h-461v41q58 0 100 22.5t42 57.5v106q-426 -327 -750 -327z" />
    <glyph glyph-name="uni091A094D0930" horiz-adv-x="1192" 
d="M106 -100l-20 120q199 0 387 62q-152 9 -260.5 108.5t-108.5 229.5q0 95 80 184t209 135h-368v62h759v-62h-159q-137 0 -229.5 -85t-92.5 -203q0 -116 86.5 -203.5t216.5 -87.5q44 0 108.5 35.5t149.5 107.5v658h-870v79h1268v-79h-218v-840q0 -37 43.5 -58.5t96.5 -21.5
v-41h-459v41q56 0 97.5 22t41.5 58v98q-208 -160 -397.5 -239.5t-360.5 -79.5z" />
    <glyph glyph-name="uni0925094D0930" horiz-adv-x="1212" 
d="M564 750v84q0 86 -34.5 141t-85.5 55q-49 0 -84.5 -57t-35.5 -125q0 -64 35 -105t95 -41q53 0 110 48zM84 -100l-10 120q271 0 458 80q-212 0 -350 146t-138 354q110 -40 210 -40q104 0 173 29.5t103 88.5q-57 -38 -126 -38q-107 0 -183.5 59.5t-76.5 140.5
q0 105 90 172.5t210 67.5q121 0 210.5 -74t89.5 -186q0 -144 -123.5 -236.5t-279.5 -91.5q-47 0 -97 8q0 -123 105.5 -211.5t254.5 -88.5q179 0 280 120v640h-60v80h458v-80h-218v-840q0 -33 42.5 -56.5t97.5 -23.5v-40h-460v40q56 0 98 23t42 57v100q-208 -160 -408 -240
t-392 -80z" />
    <glyph glyph-name="uni0927094D0930" horiz-adv-x="1136" 
d="M58 -100l-10 120q192 0 376 60q-144 1 -247 86t-103 202q0 89 63 159t161 93v10q-90 16 -150 74t-60 126q0 97 81.5 163.5t198.5 66.5q99 0 164.5 -52t65.5 -128q0 -46 -31.5 -78t-78.5 -32q-45 0 -77.5 25.5t-32.5 64.5q0 38 30 64t70 26q25 0 40 -10q0 27 -27.5 43.5
t-62.5 16.5q-63 0 -106.5 -46.5t-43.5 -113.5q0 -72 54 -126t126 -54h60v-60h-60q-76 0 -128 -63.5t-52 -146.5q0 -85 67.5 -147.5t162.5 -62.5q84 0 163.5 37t136.5 103v640h-120v80h518v-80h-218v-840q0 -33 42.5 -56.5t97.5 -23.5v-40h-460v40q56 0 98 23t42 57v102
q-164 -154 -360.5 -238t-389.5 -84z" />
    <glyph glyph-name="uni0928094D0930" horiz-adv-x="1270" 
d="M422 300q65 0 112.5 58t47.5 142q0 85 -46 142.5t-114 57.5q-67 0 -113.5 -60t-46.5 -140t48 -140t112 -60zM942 540q-60 49 -135 81.5t-165 48.5q60 -30 90 -72.5t30 -97.5q0 -114 -103.5 -187t-236.5 -73q-157 0 -268.5 76t-111.5 184t111.5 184t268.5 76
q178 0 308 -35t212 -105v340h-948v80h1346v-80h-218v-840q0 -33 42.5 -56.5t97.5 -23.5v-40h-460v40q56 0 98 23t42 57v164q-203 -164 -403.5 -254t-366.5 -90l-10 120q403 0 780 304v176zM518 800z" />
    <glyph glyph-name="uni0932094D0930" horiz-adv-x="1311" 
d="M985 721q-15 3 -30 3q-73 0 -131 -71t-58 -174h-49q0 94 -64 168t-157 74q-102 0 -176 -94.5t-74 -227.5q0 -135 74.5 -226t185.5 -91v-57q-205 0 -322.5 111t-117.5 284q0 169 108 284t262 115q103 0 186 -51t123 -137q29 69 89 109t151 51v170h-991v79h1391v-79h-220
v-840q0 -33 41.5 -56.5t100.5 -23.5v-41h-461v41q64 0 101.5 23.5t37.5 56.5v119q-213 -181 -379 -181l-10 121q193 0 389 139v402z" />
    <glyph glyph-name="uni0919094D0915094DHalf" horiz-adv-x="1260" 
d="M1128 625q-37 0 -62.5 25.5t-25.5 62.5t28 62.5t60 25.5q35 0 62 -27t27 -61q0 -33 -24.5 -60.5t-64.5 -27.5zM35 479l35 62q118 -83 232 -124.5t224 -41.5q126 0 189 26t63 78q0 42 -41 61t-88 19h-223q-130 0 -201 40t-71 110q0 60 97.5 105.5t274.5 45.5h131v101h-663
v79h1336v-79h-480v-170q-80 10 -272 10q-100 0 -160 -24.5t-60 -65.5t45.5 -65.5t122.5 -24.5h203q115 0 180.5 -35t65.5 -103t-97 -126t-251 -58v-86q59 39 168 39v-53q-105 0 -168 -31v-324q0 -21 17.5 -40t53.5 -19v-25h-284v25q71 0 71 59v58q-82 -58 -168 -58
q-102 0 -172.5 60.5t-70.5 142.5q0 84 71 144.5t172 60.5q104 0 168 -59v104q-106 7 -218.5 52.5t-231.5 129.5zM485 -55v209q-49 28 -104 28q-64 0 -106 -41.5t-42 -93.5q0 -51 38 -93t91 -42q65 0 123 33zM562 296z" />
    <glyph glyph-name="uni094B0902" horiz-adv-x="476" 
d="M546 960h-218v-840q0 -33 42.5 -56.5t97.5 -23.5v-40h-460v40q56 0 98 23t42 57v840h-154v80h552v-80zM374 1060h-200q-57 0 -100 38l-320 286q-26 23 -51.5 30.5t-68.5 7.5h-40v58h220q77 0 140 -58l300 -276q41 -38 100 -38h20v-48zM314 1296q-36 0 -62 26t-26 62
t26 62t62 26t62 -26t26 -62t-26 -62t-62 -26z" />
    <glyph glyph-name="uni094B0930094D" horiz-adv-x="476" 
d="M546 960h-218v-840q0 -33 42.5 -56.5t97.5 -23.5v-40h-460v40q56 0 98 23t42 57v840h-154v80h552v-80zM447 1410h-80q-57 0 -98.5 -44.5t-41.5 -105.5q0 -62 43.5 -106t106.5 -44v-50h-180q-79 0 -120 40l-400 280q-60 60 -120 60h-40v60h220q80 0 140 -60l154 -110
q19 71 84 115.5t152 44.5h180v-80z" />
    <glyph glyph-name="uni094B0930094D0902" horiz-adv-x="476" 
d="M546 960h-218v-840q0 -33 42.5 -56.5t97.5 -23.5v-40h-460v40q56 0 98 23t42 57v840h-154v80h552v-80zM449 1410h-80q-57 0 -98.5 -44.5t-41.5 -105.5q0 -62 43.5 -106t106.5 -44v-50h-180q-79 0 -120 40l-400 280q-60 60 -120 60h-40v60h220q80 0 140 -60l154 -110
q19 71 84 115.5t152 44.5h180v-80zM419 1180q-32 0 -56 24t-24 56q0 33 22.5 56.5t57.5 23.5q36 0 58 -22t22 -58q0 -35 -23.5 -57.5t-56.5 -22.5z" />
    <glyph glyph-name="uni094C0902" horiz-adv-x="476" 
d="M546 960h-218v-840q0 -33 42.5 -56.5t97.5 -23.5v-40h-460v40q56 0 98 23t42 57v840h-154v80h552v-80zM460 1140h-160q-49 0 -88 48l-164 202q-41 50 -108 50h-140v60h294q62 0 104 -54l162 -206q31 -40 80 -40h20v-60zM474 1300q-36 0 -62 26t-26 62t26 62t62 26t62 -26
t26 -62t-26 -62t-62 -26zM260 1060h-220q-57 0 -120 50l-240 190q-51 40 -100 40h-80v60h220q70 0 120 -40l252 -200q50 -40 106 -40h62v-60z" />
    <glyph glyph-name="uni094C0930094D" horiz-adv-x="476" 
d="M546 960h-218v-840q0 -33 42.5 -56.5t97.5 -23.5v-40h-460v40q56 0 98 23t42 57v840h-154v80h552v-80zM562 1414h-60q-79 0 -124.5 -40t-45.5 -104q0 -67 41.5 -109.5t108.5 -42.5v-58h-150q-61 0 -110 58l-230 276q-40 48 -100 48h-50v58h190q56 0 98 -52l58 -72
q54 114 214 114h160v-76zM182 1060h-196q-56 0 -114 48l-240 200q-46 38 -100 38h-70v58h230q56 0 104 -42l226 -196q55 -48 110 -48h50v-58z" />
    <glyph glyph-name="uni094C0930094D0902" horiz-adv-x="476" 
d="M546 960h-218v-840q0 -33 42.5 -56.5t97.5 -23.5v-40h-460v40q56 0 98 23t42 57v840h-154v80h552v-80zM571 1414h-60q-79 0 -124.5 -40t-45.5 -104q0 -67 41.5 -109.5t108.5 -42.5v-58h-150q-61 0 -110 58l-230 276q-40 48 -100 48h-50v58h190q56 0 98 -52l58 -72
q54 114 214 114h160v-76zM191 1060h-196q-56 0 -114 48l-240 200q-46 38 -100 38h-70v58h230q56 0 104 -42l226 -196q55 -48 110 -48h50v-58zM535 1172q-36 0 -62 26t-26 62t26 62t62 26t62 -26t26 -62t-26 -62t-62 -26z" />
    <glyph glyph-name="uni091E094D0930" horiz-adv-x="1016" 
d="M688 500h-162q-18 -109 -94.5 -174.5t-183.5 -65.5q-137 0 -225 123l24 37q55 -60 123 -60q79 0 128.5 51.5t49.5 129.5q0 80 -47.5 130t-126.5 50q-70 0 -127 -47l-18 41q91 104 225 104q114 0 185.5 -67.5t86.5 -192.5h162v402h-694v79h1092v-79h-218v-840
q0 -37 43 -58.5t97 -21.5v-41h-459v41q55 0 97 22t42 58v137q-170 -129 -325 -193.5t-295 -64.5v121q133 0 288 55.5t332 167.5v156z" />
    <glyph glyph-name="uni0923094D0930" horiz-adv-x="1284" 
d="M556 960h-280v-380q0 -91 41.5 -155.5t98.5 -64.5q58 0 99 63t41 157v380zM956 960h-220v-380q0 -120 -95.5 -200t-224.5 -80t-224.5 80t-95.5 200v380h-102v80h1360v-80h-218v-840q0 -33 42.5 -56.5t97.5 -23.5v-40h-460v40q56 0 98 23t42 57v204
q-205 -165 -433.5 -254.5t-446.5 -89.5v120q212 0 432 76.5t448 229.5v554zM832 10z" />
    <glyph glyph-name="uni092F094D0930" horiz-adv-x="1140" 
d="M812 960h-360q83 -23 131.5 -69.5t48.5 -100.5q0 -87 -78.5 -148.5t-191.5 -61.5h-140q0 -164 98 -262t262 -98q112 0 230 92v648zM32 20q222 0 478 120q-209 0 -335.5 121.5t-126.5 354.5q0 20 4 64q85 -40 170 -40q90 0 155 47t65 113q0 55 -32.5 95t-97.5 65h-318v80
h1216v-80h-218v-840q0 -33 42.5 -56.5t97.5 -23.5v-40h-460v40q56 0 98 23t42 57v108q-197 -161 -397.5 -244.5t-382.5 -83.5v120z" />
    <glyph glyph-name="uni0937094D0930" horiz-adv-x="1068" 
d="M730 290l-450 620v-470q0 -100 70 -170t170 -70q131 0 210 90zM740 960h-410l410 -560v560zM508 122l-48 -2q-150 0 -255 93.5t-105 226.5v520h-106v80h1144v-80h-218v-840q0 -33 42.5 -56.5t97.5 -23.5v-40h-460v40q56 0 98 23t42 57v76q-396 -296 -700 -296v120
q248 0 468 102z" />
    <glyph glyph-name="uni0915094D0937094D0930" horiz-adv-x="1466" 
d="M468 632q58 0 99 55t41 135t-40.5 135t-99.5 55q-58 0 -99 -57t-41 -133q0 -77 41.5 -133.5t98.5 -56.5zM1138 550h-670q-84 0 -143 -55t-59 -133q0 -100 64.5 -161t167.5 -61q82 0 150 40v240h220q-20 -24 -20 -160v-80q0 -135 -94.5 -232.5t-225.5 -97.5h-60v50
q75 0 127.5 61.5t52.5 148.5q-44 -52 -116.5 -81t-153.5 -29q-127 0 -218.5 88.5t-91.5 211.5q0 107 84.5 192.5t215.5 107.5q-103 18 -171.5 83.5t-68.5 146.5q0 96 99 163t241 67t241 -66.5t99 -163.5q0 -71 -53.5 -129.5t-136.5 -80.5h520v340h-140v80h538v-80h-218v-840
q0 -33 42.5 -56.5t97.5 -23.5v-40h-460v40q56 0 98 23t42 57v200l-210 -140l-40 120l250 118v132z" />
    <glyph glyph-name="uni091C094D091E094D0930" horiz-adv-x="1502" 
d="M1174 720q-118 0 -374 36q-242 34 -376 34q-57 0 -98.5 -32.5t-41.5 -77.5q0 -49 45.5 -79.5t104.5 -30.5h200q87 0 148.5 -52.5t61.5 -127.5q0 -109 -120.5 -174.5t-269.5 -65.5q48 -58 99 -87t105 -29q39 0 66 16l20 -30q-68 -120 -170 -120q-55 0 -115 35t-125 105
q-53 57 -133.5 107t-166.5 73l20 70q80 -45 175 -67.5t205 -22.5q90 0 155 47t65 113q0 60 -51.5 100t-128.5 40h-140q-107 0 -183.5 53.5t-76.5 126.5q0 74 92.5 127t227.5 53q131 0 390 -40t390 -40v180h-1180v80h1578v-80h-218v-840q0 -33 42.5 -56.5t97.5 -23.5v-40
h-460v40q56 0 98 23t42 57v146q-187 -126 -320 -126v120q133 0 320 98v362z" />
    <glyph glyph-name="uni0918093C" horiz-adv-x="1104" 
d="M776 960h-290q-51 0 -100.5 -48.5t-49.5 -121.5q0 -61 35.5 -105.5t84.5 -44.5h60v-60h-60q-81 0 -140.5 -56.5t-59.5 -133.5q0 -84 79.5 -137t180.5 -53q75 0 140 32.5t120 97.5v630zM776 260q-69 -80 -169 -120t-231 -40q-127 0 -223.5 73.5t-96.5 186.5
q0 91 67.5 161.5t172.5 88.5v10q-67 6 -113.5 51.5t-46.5 108.5q0 57 46 106.5t114 73.5h-302v80h1180v-80h-218v-840q0 -33 42.5 -56.5t97.5 -23.5v-40h-460v40q56 0 98 23t42 57v140zM472 -268q-36 0 -62 26t-26 62t26 62t62 26t62 -26t26 -62t-26 -62t-62 -26z" />
    <glyph glyph-name="uni0919093C" horiz-adv-x="1230" 
d="M1300 960h-364v-220h-320q-85 0 -142.5 -29t-57.5 -71q0 -41 60.5 -70.5t139.5 -29.5h120q117 0 198.5 -66.5t81.5 -163.5q0 -128 -130 -219t-310 -91q-215 0 -367.5 160t-172.5 390l60 10q18 -198 160 -334t330 -136q105 0 177.5 61.5t72.5 148.5q0 71 -46.5 120.5
t-113.5 49.5h-170q-111 0 -190.5 56t-79.5 134q0 66 78 113t192 47h250v140h-762v80h1306v-80zM1084 526q-36 0 -62 26t-26 62t26 62t62 26t62 -26t26 -62t-26 -62t-62 -26zM1130 0zM572 -268q-36 0 -62 26t-26 62t26 62t62 26t62 -26t26 -62t-26 -62t-62 -26z" />
    <glyph glyph-name="uni091A093C" horiz-adv-x="1192" 
d="M864 220q-71 -70 -161 -105t-199 -35q-165 0 -282.5 100.5t-117.5 239.5q0 100 81.5 186.5t208.5 133.5h-370v60h760v-60h-160q-133 0 -226.5 -84.5t-93.5 -205.5q0 -119 88.5 -204.5t211.5 -85.5q75 0 140 32.5t120 97.5v670h-870v80h1268v-80h-218v-840
q0 -33 42.5 -56.5t97.5 -23.5v-40h-460v40q56 0 98 23t42 57v100zM572 -268q-36 0 -62 26t-26 62t26 62t62 26t62 -26t26 -62t-26 -62t-62 -26z" />
    <glyph glyph-name="uni091B093C" horiz-adv-x="1222" 
d="M950 300q30 82 30 200q0 104 -29 172t-71 68t-71 -57.5t-29 -132.5q0 -103 50 -176.5t120 -73.5zM980 780q80 -15 130 -92t50 -188q0 -214 -165.5 -357t-394.5 -143q-239 0 -384.5 76.5t-145.5 203.5q0 80 69 141t173 69l-2 10q-93 8 -156.5 60.5t-63.5 119.5
q0 81 72.5 140.5t177.5 59.5q92 0 160 -60l-30 -40q-41 30 -80 30q-51 0 -85.5 -39t-34.5 -91q0 -64 60 -112t140 -48v-40q-93 0 -156.5 -58.5t-63.5 -141.5q0 -105 99.5 -162.5t250.5 -57.5q118 0 213 55.5t127 144.5q-129 0 -224.5 80t-95.5 200q0 88 51 157t129 83v180
h-806v80h1298v-80h-312v-180zM878 796zM572 -268q-36 0 -62 26t-26 62t26 62t62 26t62 -26t26 -62t-26 -62t-62 -26z" />
    <glyph glyph-name="uni091D093C" horiz-adv-x="1366" 
d="M1436 960h-218v-840q0 -33 42.5 -56.5t97.5 -23.5v-40h-460v40q56 0 98 23t42 57v280h-170q10 -28 10 -60q0 -107 -104.5 -173.5t-235.5 -66.5h-60q49 -40 99 -60t101 -20q52 0 120 40l20 -20q-121 -100 -220 -100q-106 0 -197.5 34.5t-152.5 95.5q-106 106 -230 150v40
h310q25 -44 78 -72t112 -28q78 0 129 52t51 128q0 55 -41.5 87.5t-108.5 32.5h-210q-106 0 -168 42.5t-62 117.5q0 73 66 126.5t164 53.5h260v160h-604v80h1442v-80zM1038 460v500h-260v-230h-260q-100 0 -150 -27.5t-50 -82.5q0 -45 45 -67.5t135 -22.5q34 0 100 10
q67 10 100 10q60 0 102.5 -24.5t57.5 -65.5h180zM392 -318q-36 0 -62 26t-26 62t26 62t62 26t62 -26t26 -62t-26 -62t-62 -26z" />
    <glyph glyph-name="uni091E093C" horiz-adv-x="1016" 
d="M688 500h-162q-18 -109 -94.5 -174.5t-183.5 -65.5q-137 0 -225 123l24 37q55 -60 123 -60q79 0 128.5 51.5t49.5 129.5q0 80 -47.5 130t-126.5 50q-70 0 -127 -47l-18 41q91 104 225 104q114 0 185.5 -67.5t86.5 -192.5h162v402h-694v79h1092v-79h-218v-840
q0 -37 43 -58.5t97 -21.5v-41h-459v41q55 0 97 22t42 58v379zM262 -138q-36 0 -62 26t-26 62t26 62t62 26t62 -26t26 -62t-26 -62t-62 -26z" />
    <glyph glyph-name="uni091F093C" horiz-adv-x="976" 
d="M1046 960h-210v-280q-150 40 -260 40q-139 0 -239.5 -93t-100.5 -227q0 -131 111.5 -225.5t268.5 -94.5q151 0 310 130l30 -30q-72 -86 -178 -133t-222 -47q-199 0 -349.5 116t-150.5 294q0 159 137.5 269.5t332.5 110.5q74 0 130 -10v180h-662v80h1052v-80zM512 -268
q-36 0 -62 26t-26 62t26 62t62 26t62 -26t26 -62t-26 -62t-62 -26z" />
    <glyph glyph-name="uni0920093C" horiz-adv-x="1118" 
d="M1188 960h-328v-200h-90q132 -49 211 -147.5t79 -212.5q0 -167 -135.5 -283.5t-324.5 -116.5h-80q-188 0 -324 118t-136 282q0 165 134.5 282.5t325.5 117.5h160v160h-686v80h1194v-80zM600 740h-80q-121 0 -200.5 -102.5t-79.5 -237.5t79.5 -237.5t200.5 -102.5h80
q121 0 200.5 102.5t79.5 237.5t-79.5 237.5t-200.5 102.5zM552 -268q-36 0 -62 26t-26 62t26 62t62 26t62 -26t26 -62t-26 -62t-62 -26z" />
    <glyph glyph-name="uni0923093C" horiz-adv-x="1284" 
d="M556 960h-280v-500q0 -91 41.5 -155.5t98.5 -64.5q58 0 99 63t41 157v500zM956 960h-220v-500q0 -120 -95.5 -200t-224.5 -80t-224.5 80t-95.5 200v500h-102v80h1360v-80h-218v-840q0 -33 42.5 -56.5t97.5 -23.5v-40h-460v40q56 0 98 23t42 57v840zM832 10zM632 -268
q-36 0 -62 26t-26 62t26 62t62 26t62 -26t26 -62t-26 -62t-62 -26z" />
    <glyph glyph-name="uni092A093C" horiz-adv-x="1004" 
d="M676 960h-400v-500q0 -80 60 -140t140 -60q81 0 140.5 58.5t59.5 141.5v500zM676 290q-45 -65 -110 -97.5t-150 -32.5q-133 0 -226.5 93.5t-93.5 226.5v480h-102v80h1080v-80h-218v-840q0 -33 42.5 -56.5t97.5 -23.5v-40h-460v40q56 0 98 23t42 57v170zM352 -268
q-36 0 -62 26t-26 62t26 62t62 26t62 -26t26 -62t-26 -62t-62 -26z" />
    <glyph glyph-name="uni092C093C" horiz-adv-x="1026" 
d="M608 230l-300 450q-70 -59 -70 -210q0 -125 82.5 -199.5t170.5 -74.5q59 0 117 34zM698 720q-79 54 -164 54q-93 0 -166 -44l310 -470l20 10v450zM698 220q-122 -100 -260 -100q-156 0 -268 106t-112 254q0 149 110.5 254.5t269.5 105.5q163 0 260 -80v200h-704v80h1102
v-80h-218v-840q0 -33 42.5 -56.5t97.5 -23.5v-40h-460v40q56 0 98 23t42 57v100zM352 -268q-36 0 -62 26t-26 62t26 62t62 26t62 -26t26 -62t-26 -62t-62 -26z" />
    <glyph glyph-name="uni092D093C" horiz-adv-x="1188" 
d="M460 840q0 75 -32 127.5t-78 52.5t-78 -52.5t-32 -127.5q0 -65 32 -112.5t78 -47.5t78 47.5t32 112.5zM460 500h-60q-63 0 -101.5 -54.5t-38.5 -137.5q0 -85 28 -141.5t72 -56.5q42 0 71 46t29 114v230zM860 500h-220v-160q0 -119 -82.5 -204.5t-197.5 -85.5t-197.5 79.5
t-82.5 190.5q0 103 76.5 171.5t183.5 68.5h120v120q-52 -60 -140 -60q-95 0 -162.5 64.5t-67.5 155.5q0 99 79.5 169.5t190.5 70.5q115 0 197.5 -75t82.5 -185v-260h220v400h-180v80h578v-80h-218v-840q0 -33 42.5 -56.5t97.5 -23.5v-40h-460v40q56 0 98 23t42 57v380z
M572 -268q-36 0 -62 26t-26 62t26 62t62 26t62 -26t26 -62t-26 -62t-62 -26z" />
    <glyph glyph-name="uni092E093C" horiz-adv-x="1174" 
d="M1244 960h-218v-840q0 -33 42.5 -56.5t97.5 -23.5v-40h-460v40q56 0 98 23t42 57v390h-260v-150q0 -113 -84 -201.5t-196 -88.5q-111 0 -185.5 73.5t-74.5 182.5q0 117 82 185.5t218 68.5h60v380h-412v80h1250v-80zM846 580v380h-260v-380h260zM406 280v232h-70
q-50 0 -80 -57t-30 -141q0 -184 80 -184q43 0 71.5 45t28.5 105zM532 -268q-36 0 -62 26t-26 62t26 62t62 26t62 -26t26 -62t-26 -62t-62 -26z" />
    <glyph glyph-name="uni0930093C" horiz-adv-x="800" 
d="M100 700h600v-700h-600v700zM650 50v600h-500v-600h500z" />
    <glyph glyph-name="uni0932093C" horiz-adv-x="1314" 
d="M986 720q-16 3 -31 3q-81 0 -135 -75t-54 -168h-50q0 99 -63 169.5t-157 70.5q-104 0 -177 -95t-73 -225q0 -131 73.5 -225.5t176.5 -94.5q72 0 120 40l30 -30q-59 -70 -210 -70q-153 0 -261.5 117.5t-108.5 282.5q0 167 107.5 283.5t262.5 116.5q101 0 185.5 -51.5
t124.5 -138.5q24 65 88 108.5t152 51.5v170h-992v80h1390v-80h-218v-840q0 -33 42.5 -56.5t97.5 -23.5v-40h-460v40q56 0 98 23t42 57v600zM612 -268q-36 0 -62 26t-26 62t26 62t62 26t62 -26t26 -62t-26 -62t-62 -26z" />
    <glyph glyph-name="uni0934Alt" horiz-adv-x="1318" 
d="M606 644q-66 116 -158 116q-82 0 -141 -106t-59 -254q0 -141 54 -245.5t126 -104.5q58 0 99 106t41 264q0 140 38 224zM688 166q70 -96 180 -96q82 0 141 96t59 234q0 153 -52.5 256.5t-127.5 103.5q-65 0 -102.5 -104.5t-37.5 -253.5q0 -151 -60 -236zM652 112
q-71 -112 -224 -112q-148 0 -254 124t-106 296q0 167 99.5 283.5t240.5 116.5q155 0 226 -124q56 94 174 124v140h-814v80h1394v-80h-400v-140q120 -43 190 -152t70 -248q0 -173 -100.5 -296.5t-269.5 -123.5q-142 0 -226 112zM902 830zM632 -268q-36 0 -62 26t-26 62t26 62
t62 26t62 -26t26 -62t-26 -62t-62 -26z" />
    <glyph glyph-name="uni0935093C" horiz-adv-x="1026" 
d="M698 300v390q-83 100 -220 100q-105 0 -172.5 -84.5t-67.5 -205.5q0 -118 69 -204t171 -86q113 0 220 90zM878 960v-840q0 -33 42.5 -56.5t97.5 -23.5v-40h-460v40q56 0 98 23t42 57v110q-107 -90 -260 -90q-156 0 -268 106t-112 254q0 149 110.5 254.5t269.5 105.5
q138 0 260 -100v200h-704v80h1102v-80h-218zM372 -268q-36 0 -62 26t-26 62t26 62t62 26t62 -26t26 -62t-26 -62t-62 -26z" />
    <glyph glyph-name="uni0936093C" horiz-adv-x="1332" 
d="M484 520q92 0 152 64t60 154q0 98 -58.5 160t-153.5 62q-92 0 -156 -63.5t-64 -156.5q0 -92 64 -156t156 -64zM684 556q-125 -106 -260 -106q-142 0 -246 86t-104 204q0 120 119 205t291 85q167 0 283.5 -131.5t116.5 -318.5q0 -183 -111.5 -311.5t-268.5 -128.5
q-72 0 -140 40q91 -115 156.5 -162.5t183.5 -47.5v-50h-120q-117 0 -197 37.5t-123 112.5q-48 84 -103 131.5t-117 58.5v40h260q77 -90 140 -90q107 0 173.5 96.5t66.5 249.5zM1402 960h-218v-840q0 -33 42.5 -56.5t97.5 -23.5v-40h-460v40q56 0 98 23t42 57v840h-180v80
h578v-80zM956 10zM129 -138q-36 0 -62 26t-26 62t26 62t62 26t62 -26t26 -62t-26 -62t-62 -26z" />
    <glyph glyph-name="uni0937093C" horiz-adv-x="1068" 
d="M730 290l-450 620v-470q0 -100 70 -170t170 -70q131 0 210 90zM740 960h-410l410 -560v560zM740 240q-102 -120 -280 -120q-149 0 -254.5 94.5t-105.5 225.5v520h-106v80h1144v-80h-218v-840q0 -33 42.5 -56.5t97.5 -23.5v-40h-460v40q56 0 98 23t42 57v120zM392 -268
q-36 0 -62 26t-26 62t26 62t62 26t62 -26t26 -62t-26 -62t-62 -26z" />
    <glyph glyph-name="uni0938093C" horiz-adv-x="1329" 
d="M1001 510q-60 -10 -100 -10q-82 0 -158 35q-46 -110 -154 -165t-278 -55q116 -138 179 -176.5t122 -38.5q94 0 160 111l39 -31q-82 -180 -283 -180q-85 0 -159 35t-156 125q-141 163 -209 180l16 53q106 -33 185 -33q149 0 247.5 82.5t98.5 212.5q0 45 -13.5 88t-40 81.5
t-64 69t-84 49t-64.5 18.5h-291v79h1405v-79h-217v-840q0 -33 41.5 -56.5t99.5 -23.5v-41h-461v41q51 0 95 20t44 60v389zM1001 590v371h-559q153 -32 236.5 -123t83.5 -226q60 -43 139 -43q42 0 100 21zM129 -98q-36 0 -62 26t-26 62t26 62t62 26t62 -26t26 -62t-26 -62
t-62 -26z" />
    <glyph glyph-name="uni0939093C" horiz-adv-x="1006" 
d="M1076 960h-246v-230h-312q-58 0 -93 -23t-35 -57q0 -40 50 -80q56 10 110 10q185 0 292.5 -70.5t107.5 -189.5q0 -104 -83.5 -172t-196.5 -68q-107 0 -180 60v50q41 -30 110 -30t119.5 47.5t50.5 112.5q0 83 -69.5 141.5t-170.5 58.5q-120 0 -210 -67.5t-90 -172.5
q0 -123 117.5 -211.5t282.5 -88.5q219 0 320 80l-60 -140h-270q-285 0 -427.5 85t-142.5 255q0 90 69 164.5t181 105.5q-100 50 -100 130q0 58 61 99t149 41h240v160h-656v80h1082v-80zM497 -318q-36 0 -62 26t-26 62t26 62t62 26t62 -26t26 -62t-26 -62t-62 -26z" />
    <glyph glyph-name="uni0919094D0930" horiz-adv-x="1230" 
d="M1300 960h-364v-220h-320q-85 0 -142.5 -29t-57.5 -71q0 -41 60.5 -70.5t139.5 -29.5h120q117 0 198.5 -66.5t81.5 -163.5q0 -128 -130 -219t-310 -91q-215 0 -367.5 160t-172.5 390l60 10q18 -198 160 -334t330 -136q105 0 177.5 61.5t72.5 148.5q0 71 -46.5 120.5
t-113.5 49.5h-170q-111 0 -190.5 56t-79.5 134q0 66 78 113t192 47h250v140h-762v80h1306v-80zM1084 526q-36 0 -62 26t-26 62t26 62t62 26t62 -26t26 -62t-26 -62t-62 -26zM1130 0zM970 -442h-130l-270 290l-270 -290h-130l300 400h200z" />
    <glyph glyph-name="uni091B094D0930" horiz-adv-x="1222" 
d="M950 300q30 82 30 200q0 104 -29 172t-71 68t-71 -57.5t-29 -132.5q0 -103 50 -176.5t120 -73.5zM980 780q80 -15 130 -92t50 -188q0 -214 -165.5 -357t-394.5 -143q-239 0 -384.5 76.5t-145.5 203.5q0 80 69 141t173 69l-2 10q-93 8 -156.5 60.5t-63.5 119.5
q0 81 72.5 140.5t177.5 59.5q92 0 160 -60l-30 -40q-41 30 -80 30q-51 0 -85.5 -39t-34.5 -91q0 -64 60 -112t140 -48v-40q-93 0 -156.5 -58.5t-63.5 -141.5q0 -105 99.5 -162.5t250.5 -57.5q118 0 213 55.5t127 144.5q-129 0 -224.5 80t-95.5 200q0 88 51 157t129 83v180
h-806v80h1298v-80h-312v-180zM878 796zM984 -440h-130l-270 290l-270 -290h-130l300 400h200z" />
    <glyph glyph-name="uni091F094D0930" horiz-adv-x="976" 
d="M1046 960h-210v-280q-150 40 -260 40q-139 0 -239.5 -93t-100.5 -227q0 -131 111.5 -225.5t268.5 -94.5q151 0 310 130l30 -30q-72 -86 -178 -133t-222 -47q-199 0 -349.5 116t-150.5 294q0 159 137.5 269.5t332.5 110.5q74 0 130 -10v180h-662v80h1052v-80zM948 -440
h-130l-270 290l-270 -290h-130l300 400h200z" />
    <glyph glyph-name="uni0920094D0930" horiz-adv-x="1118" 
d="M1188 960h-328v-200h-90q132 -49 211 -147.5t79 -212.5q0 -167 -135.5 -283.5t-324.5 -116.5h-80q-188 0 -324 118t-136 282q0 165 134.5 282.5t325.5 117.5h160v160h-686v80h1194v-80zM600 740h-80q-121 0 -200.5 -102.5t-79.5 -237.5t79.5 -237.5t200.5 -102.5h80
q121 0 200.5 102.5t79.5 237.5t-79.5 237.5t-200.5 102.5zM956 -440h-130l-270 290l-270 -290h-130l300 400h200z" />
    <glyph glyph-name="uni0921094D0930" horiz-adv-x="1130" 
d="M1200 960h-264v-220h-340q-90 0 -135 -25t-45 -75t50 -75t150 -25h120q117 0 198.5 -66.5t81.5 -163.5q0 -128 -130 -219t-310 -91q-215 0 -367.5 160t-172.5 390l60 10q18 -198 160 -334t330 -136q106 0 178 60.5t72 149.5q0 72 -48.5 121t-123.5 49h-158
q-118 0 -194 52t-76 138q0 73 74.5 116.5t195.5 43.5h250v140h-762v80h1206v-80zM980 -440h-130l-270 290l-270 -290h-130l300 400h200z" />
    <glyph glyph-name="uni0922094D0930" horiz-adv-x="1152" 
d="M1222 960h-284v-220h-280q-173 0 -296.5 -100.5t-123.5 -239.5q0 -137 86 -238.5t214 -101.5h80q-55 39 -87.5 110.5t-32.5 159.5q0 121 87.5 205.5t212.5 84.5t212.5 -87.5t87.5 -212.5q0 -134 -100.5 -227t-239.5 -93h-220q-196 0 -338 118t-142 282q0 167 145.5 283.5
t354.5 116.5h200v160h-764v80h1228v-80zM758 540q-75 0 -127.5 -68t-52.5 -162q0 -102 53.5 -176t126.5 -74q66 0 113 72t47 178q0 99 -46 164.5t-114 65.5zM1025 -440h-130l-270 290l-270 -290h-130l300 400h200z" />
    <glyph glyph-name="uni0933094D0930" horiz-adv-x="1318" 
d="M606 644q-66 116 -158 116q-82 0 -141 -106t-59 -254q0 -141 54 -245.5t126 -104.5q58 0 99 106t41 264q0 140 38 224zM688 166q70 -96 180 -96q82 0 141 96t59 234q0 153 -52.5 256.5t-127.5 103.5q-65 0 -102.5 -104.5t-37.5 -253.5q0 -151 -60 -236zM652 112
q-71 -112 -224 -112q-148 0 -254 124t-106 296q0 167 99.5 283.5t240.5 116.5q155 0 226 -124q56 94 174 124v140h-814v80h1394v-80h-400v-140q120 -43 190 -152t70 -248q0 -173 -100.5 -296.5t-269.5 -123.5q-142 0 -226 112zM902 830zM1290 -443h-130l-270 290l-270 -290
h-130l300 400h200z" />
    <glyph glyph-name="uni0958094D0930" horiz-adv-x="1620" 
d="M742 306v384q-83 100 -220 100q-105 0 -172.5 -84.5t-67.5 -205.5q0 -118 69 -204t171 -86q53 0 112 24q22 13 108 72zM1062 0h-460v40q56 0 98 23t42 57v104q-374 -304 -690 -304l-10 120q167 0 440 100q-156 0 -268 106t-112 254q0 149 110.5 254.5t269.5 105.5
q138 0 260 -100v200h-748v80h1696v-80h-768v-180q98 80 260 80q160 0 270 -104t110 -256q0 -151 -111.5 -255.5t-268.5 -104.5q-119 0 -220 80l20 50q69 -60 160 -60q99 0 169.5 85.5t70.5 204.5q0 121 -69.5 205.5t-170.5 84.5q-143 0 -220 -90v-580q0 -33 42.5 -56.5
t97.5 -23.5v-40zM44 0zM482 -268q-36 0 -62 26t-26 62t26 62t62 26t62 -26t26 -62t-26 -62t-62 -26z" />
    <glyph glyph-name="uni0959094D0930" horiz-adv-x="1831" 
d="M1504 960h-1052q135 -24 222.5 -116.5t87.5 -213.5q0 -136 -133 -233t-317 -97q79 -94 158.5 -147t141.5 -53q83 0 160 110l40 -30q-30 -83 -108 -131.5t-172 -48.5q-73 0 -148.5 32t-131.5 88q-96 96 -156 146t-84 54v40q34 0 100 -10q67 -10 100 -10q133 0 226.5 93.5
t93.5 226.5q0 111 -73.5 195.5t-186.5 104.5h-278v80h1908v-80h-218v-840q0 -34 42 -57t98 -23v-40h-460v40q55 0 97.5 23.5t42.5 56.5v88q-382 -288 -700 -288l-10 120q170 0 382 86q-135 24 -223.5 123t-88.5 231q0 152 110 256t270 104q162 0 260 -80v200zM1504 280v420
q-84 60 -190 60q-113 0 -191.5 -81.5t-78.5 -198.5q0 -113 68 -196.5t172 -83.5q50 0 84 8zM150 -140q-36 0 -62 26t-26 62q0 37 24.5 62.5t63.5 25.5t63.5 -25.5t24.5 -62.5q0 -36 -26 -62t-62 -26zM856 0z" />
    <glyph glyph-name="uni095A094D0930" horiz-adv-x="1264" 
d="M344 621q-53 0 -87 -57.5t-34 -123.5q0 -64 34 -122t87 -58q51 0 86 54t35 126t-34 126.5t-87 54.5zM934 961h-510q153 -28 256.5 -130.5t103.5 -230.5q0 -166 -129 -282.5t-311 -116.5q-123 0 -212 71t-89 172q0 98 79 172t191 74q106 0 174 -75t68 -175h8q41 47 41 160
q0 101 -58 185.5t-150 130t-132 45.5h-270v79h1338v-79h-218v-840q0 -37 43.5 -58.5t95.5 -21.5v-41h-458v41q51 0 95 20t44 60v151q-429 -344 -768 -344l-10 119q339 0 778 307v607zM842 10zM592 -268q-36 0 -62 26t-26 62t26 62t62 26t62 -26t26 -62t-26 -62t-62 -26z" />
    <glyph glyph-name="uni0918093C094D0930" horiz-adv-x="1120" 
d="M793 961h-291q-56 0 -103 -51.5t-47 -118.5t36.5 -108.5t82.5 -41.5h61v-61h-57q-80 0 -141.5 -50t-61.5 -131q0 -82 71 -139t187 -57q77 0 142.5 31.5t120.5 95.5v631zM43 -100l-8 120q164 0 381 86q-157 13 -250.5 87.5t-93.5 189.5q0 83 66 145t173 82v11
q-69 6 -114 53t-45 106q0 52 42 101.5t117 79.5h-317v79h1196v-79h-217v-840q0 -34 40 -57t99 -23v-41h-461v41q58 0 100 22.5t42 57.5v106q-426 -327 -750 -327zM492 -268q-36 0 -62 26t-26 62t26 62t62 26t62 -26t26 -62t-26 -62t-62 -26z" />
    <glyph glyph-name="uni0919093C094D0930" horiz-adv-x="1230" 
d="M1300 960h-364v-220h-320q-85 0 -142.5 -29t-57.5 -71q0 -41 60.5 -70.5t139.5 -29.5h120q117 0 198.5 -66.5t81.5 -163.5q0 -128 -130 -219t-310 -91q-215 0 -367.5 160t-172.5 390l60 10q18 -198 160 -334t330 -136q105 0 177.5 61.5t72.5 148.5q0 71 -46.5 120.5
t-113.5 49.5h-170q-111 0 -190.5 56t-79.5 134q0 66 78 113t192 47h250v140h-762v80h1306v-80zM1084 526q-36 0 -62 26t-26 62t26 62t62 26t62 -26t26 -62t-26 -62t-62 -26zM1130 0zM972 -760h-130l-270 290l-270 -290h-130l300 400h200zM572 -268q-36 0 -62 26t-26 62
t26 62t62 26t62 -26t26 -62t-26 -62t-62 -26z" />
    <glyph glyph-name="uni091A093C094D0930" horiz-adv-x="1192" 
d="M106 -100l-20 120q199 0 387 62q-152 9 -260.5 108.5t-108.5 229.5q0 95 80 184t209 135h-368v62h759v-62h-159q-137 0 -229.5 -85t-92.5 -203q0 -116 86.5 -203.5t216.5 -87.5q44 0 108.5 35.5t149.5 107.5v658h-870v79h1268v-79h-218v-840q0 -37 43.5 -58.5t96.5 -21.5
v-41h-459v41q56 0 97.5 22t41.5 58v98q-208 -160 -397.5 -239.5t-360.5 -79.5zM572 -268q-36 0 -62 26t-26 62t26 62t62 26t62 -26t26 -62t-26 -62t-62 -26z" />
    <glyph glyph-name="uni091B093C094D0930" horiz-adv-x="1222" 
d="M950 300q30 82 30 200q0 104 -29 172t-71 68t-71 -57.5t-29 -132.5q0 -103 50 -176.5t120 -73.5zM980 780q80 -15 130 -92t50 -188q0 -214 -165.5 -357t-394.5 -143q-239 0 -384.5 76.5t-145.5 203.5q0 80 69 141t173 69l-2 10q-93 8 -156.5 60.5t-63.5 119.5
q0 81 72.5 140.5t177.5 59.5q92 0 160 -60l-30 -40q-41 30 -80 30q-51 0 -85.5 -39t-34.5 -91q0 -64 60 -112t140 -48v-40q-93 0 -156.5 -58.5t-63.5 -141.5q0 -105 99.5 -162.5t250.5 -57.5q118 0 213 55.5t127 144.5q-129 0 -224.5 80t-95.5 200q0 88 51 157t129 83v180
h-806v80h1298v-80h-312v-180zM878 796zM987 -760h-130l-270 290l-270 -290h-130l300 400h200zM572 -268q-36 0 -62 26t-26 62t26 62t62 26t62 -26t26 -62t-26 -62t-62 -26z" />
    <glyph glyph-name="uni095B094D0930" horiz-adv-x="1334" 
d="M1002 244q-203 -164 -403.5 -254t-366.5 -90l-10 120q171 0 366 76.5t414 229.5v404h-324q84 -31 132 -96t48 -144q0 -121 -102.5 -200.5t-237.5 -79.5q-180 0 -320 162t-160 398h60q31 -183 136.5 -306.5t233.5 -123.5q85 0 147.5 55t62.5 135q0 83 -69.5 141.5
t-170.5 58.5h-100v60h664v170h-1008v80h1406v-80h-218v-840q0 -33 42.5 -56.5t97.5 -23.5v-40h-460v40q56 0 98 23t42 57v124zM662 -268q-36 0 -62 26t-26 62t26 62t62 26t62 -26t26 -62t-26 -62t-62 -26z" />
    <glyph glyph-name="uni091D093C094D0930" horiz-adv-x="1444" 
d="M1514 960h-218v-840q0 -33 42.5 -56.5t97.5 -23.5v-40h-460v40q56 0 98 23t42 57v116q-124 -86 -250 -96l-10 120q148 0 260 34v106h-280q8 -29 8 -60q0 -107 -104.5 -173.5t-235.5 -66.5h-60q99 -80 200 -80q52 0 120 40l20 -40q-97 -80 -220 -80q-106 0 -197.5 34.5
t-152.5 95.5q-132 132 -180 150v40h260q70 -100 190 -100q76 0 128 47t52 121q0 58 -46 100t-110 42q-18 0 -90 -5t-114 -5q-88 0 -159 51.5t-71 128.5q0 81 87 130.5t223 49.5h172v140h-562v80h1520v-80zM1116 460v500h-380v-230h-252q-100 0 -150 -27.5t-50 -82.5
q0 -29 35.5 -53.5t86.5 -24.5q30 0 105 8t113 8q70 0 118 -24.5t74 -73.5h300zM372 -318q-36 0 -62 26t-26 62t26 62t62 26t62 -26t26 -62t-26 -62t-62 -26z" />
    <glyph glyph-name="uni091E093C094D0930" horiz-adv-x="1016" 
d="M688 500h-162q-18 -109 -94.5 -174.5t-183.5 -65.5q-137 0 -225 123l24 37q55 -60 123 -60q79 0 128.5 51.5t49.5 129.5q0 80 -47.5 130t-126.5 50q-70 0 -127 -47l-18 41q91 104 225 104q114 0 185.5 -67.5t86.5 -192.5h162v402h-694v79h1092v-79h-218v-840
q0 -37 43 -58.5t97 -21.5v-41h-459v41q55 0 97 22t42 58v137q-170 -129 -325 -193.5t-295 -64.5v121q133 0 288 55.5t332 167.5v156zM392 -268q-36 0 -62 26t-26 62t26 62t62 26t62 -26t26 -62t-26 -62t-62 -26z" />
    <glyph glyph-name="uni091F093C094D0930" horiz-adv-x="976" 
d="M1046 960h-210v-280q-150 40 -260 40q-139 0 -239.5 -93t-100.5 -227q0 -131 111.5 -225.5t268.5 -94.5q151 0 310 130l30 -30q-72 -86 -178 -133t-222 -47q-199 0 -349.5 116t-150.5 294q0 159 137.5 269.5t332.5 110.5q74 0 130 -10v180h-662v80h1052v-80zM892 -760
h-130l-270 290l-270 -290h-130l300 400h200zM512 -268q-36 0 -62 26t-26 62t26 62t62 26t62 -26t26 -62t-26 -62t-62 -26z" />
    <glyph glyph-name="uni0920093C094D0930" horiz-adv-x="1118" 
d="M1188 960h-328v-200h-90q132 -49 211 -147.5t79 -212.5q0 -167 -135.5 -283.5t-324.5 -116.5h-80q-188 0 -324 118t-136 282q0 165 134.5 282.5t325.5 117.5h160v160h-686v80h1194v-80zM600 740h-80q-121 0 -200.5 -102.5t-79.5 -237.5t79.5 -237.5t200.5 -102.5h80
q121 0 200.5 102.5t79.5 237.5t-79.5 237.5t-200.5 102.5zM957 -760h-130l-270 290l-270 -290h-130l300 400h200zM552 -268q-36 0 -62 26t-26 62t26 62t62 26t62 -26t26 -62t-26 -62t-62 -26z" />
    <glyph glyph-name="uni095C094D0930" horiz-adv-x="1130" 
d="M1200 960h-264v-220h-340q-90 0 -135 -25t-45 -75t50 -75t150 -25h120q117 0 198.5 -66.5t81.5 -163.5q0 -128 -130 -219t-310 -91q-215 0 -367.5 160t-172.5 390l60 10q18 -198 160 -334t330 -136q106 0 178 60.5t72 149.5q0 72 -48.5 121t-123.5 49h-158
q-118 0 -194 52t-76 138q0 73 74.5 116.5t195.5 43.5h250v140h-762v80h1206v-80zM972 -760h-130l-270 290l-270 -290h-130l300 400h200zM572 -268q-36 0 -62 26t-26 62t26 62t62 26t62 -26t26 -62t-26 -62t-62 -26z" />
    <glyph glyph-name="uni095D094D0930" horiz-adv-x="1152" 
d="M1222 960h-284v-220h-280q-173 0 -296.5 -100.5t-123.5 -239.5q0 -137 86 -238.5t214 -101.5h80q-55 39 -87.5 110.5t-32.5 159.5q0 121 87.5 205.5t212.5 84.5t212.5 -87.5t87.5 -212.5q0 -134 -100.5 -227t-239.5 -93h-220q-196 0 -338 118t-142 282q0 167 145.5 283.5
t354.5 116.5h200v160h-764v80h1228v-80zM758 540q-75 0 -127.5 -68t-52.5 -162q0 -102 53.5 -176t126.5 -74q66 0 113 72t47 178q0 99 -46 164.5t-114 65.5zM1002 -760h-130l-270 290l-270 -290h-130l300 400h200zM602 -268q-36 0 -62 26t-26 62t26 62t62 26t62 -26t26 -62
t-26 -62t-62 -26z" />
    <glyph glyph-name="uni0923093C094D0930" horiz-adv-x="1284" 
d="M556 960h-280v-380q0 -91 41.5 -155.5t98.5 -64.5q58 0 99 63t41 157v380zM956 960h-220v-380q0 -120 -95.5 -200t-224.5 -80t-224.5 80t-95.5 200v380h-102v80h1360v-80h-218v-840q0 -33 42.5 -56.5t97.5 -23.5v-40h-460v40q56 0 98 23t42 57v204
q-205 -165 -433.5 -254.5t-446.5 -89.5v120q212 0 432 76.5t448 229.5v554zM832 10zM632 -268q-36 0 -62 26t-26 62t26 62t62 26t62 -26t26 -62t-26 -62t-62 -26z" />
    <glyph glyph-name="uni0924093C094D0930" horiz-adv-x="1143" 
d="M813 541l-629 -461l-51 59l412 301q-56 146 -141 222.5t-171 76.5q-78 0 -180 -90l-39 41q126 150 320 150q100 0 199.5 -70t181.5 -211l98 72v330h-819v79h1219v-79h-220v-840q0 -33 41 -56.5t101 -23.5v-41h-461v41q64 0 101.5 23.5t37.5 56.5v420zM472 -268
q-36 0 -62 26t-26 62t26 62t62 26t62 -26t26 -62t-26 -62t-62 -26z" />
    <glyph glyph-name="uni0925093C094D0930" horiz-adv-x="1212" 
d="M564 750v84q0 86 -34.5 141t-85.5 55q-49 0 -84.5 -57t-35.5 -125q0 -64 35 -105t95 -41q53 0 110 48zM84 -100l-10 120q271 0 458 80q-212 0 -350 146t-138 354q110 -40 210 -40q104 0 173 29.5t103 88.5q-57 -38 -126 -38q-107 0 -183.5 59.5t-76.5 140.5
q0 105 90 172.5t210 67.5q121 0 210.5 -74t89.5 -186q0 -144 -123.5 -236.5t-279.5 -91.5q-47 0 -97 8q0 -123 105.5 -211.5t254.5 -88.5q179 0 280 120v640h-60v80h458v-80h-218v-840q0 -33 42.5 -56.5t97.5 -23.5v-40h-460v40q56 0 98 23t42 57v100q-208 -160 -408 -240
t-392 -80zM592 -268q-36 0 -62 26t-26 62t26 62t62 26t62 -26t26 -62t-26 -62t-62 -26z" />
    <glyph glyph-name="uni0926093C094D0930" horiz-adv-x="1047" 
d="M420 41q-147 6 -256 112t-109 250q0 150 140.5 258.5t341.5 108.5h159v191h-702v79h1120v-79h-237v-261h-340q-123 0 -212 -82.5t-89 -203.5q0 -119 89 -202t212 -83q60 0 122 25t127 75q11 65 11 70q0 157 -41 201h190q31 -62 31 -160q0 -137 -70.5 -259t-189.5 -192
l-31 31q62 78 90 240q-21 -23 -53.5 -45t-60 -34t-45.5 -17.5t-31 -8t-131 -59.5l-295 -143l-60 118zM768 800zM472 -268q-36 0 -62 26t-26 62t26 62t62 26t62 -26t26 -62t-26 -62t-62 -26z" />
    <glyph glyph-name="uni0927093C094D0930" horiz-adv-x="1136" 
d="M58 -100l-10 120q192 0 376 60q-144 1 -247 86t-103 202q0 89 63 159t161 93v10q-90 16 -150 74t-60 126q0 97 81.5 163.5t198.5 66.5q99 0 164.5 -52t65.5 -128q0 -46 -31.5 -78t-78.5 -32q-45 0 -77.5 25.5t-32.5 64.5q0 38 30 64t70 26q25 0 40 -10q0 27 -27.5 43.5
t-62.5 16.5q-63 0 -106.5 -46.5t-43.5 -113.5q0 -72 54 -126t126 -54h60v-60h-60q-76 0 -128 -63.5t-52 -146.5q0 -85 67.5 -147.5t162.5 -62.5q84 0 163.5 37t136.5 103v640h-120v80h518v-80h-218v-840q0 -33 42.5 -56.5t97.5 -23.5v-40h-460v40q56 0 98 23t42 57v102
q-164 -154 -360.5 -238t-389.5 -84zM532 -268q-36 0 -62 26t-26 62t26 62t62 26t62 -26t26 -62t-26 -62t-62 -26z" />
    <glyph glyph-name="uni0928093C094D0930" horiz-adv-x="1270" 
d="M422 300q65 0 112.5 58t47.5 142q0 85 -46 142.5t-114 57.5q-67 0 -113.5 -60t-46.5 -140t48 -140t112 -60zM942 540q-60 49 -135 81.5t-165 48.5q60 -30 90 -72.5t30 -97.5q0 -114 -103.5 -187t-236.5 -73q-157 0 -268.5 76t-111.5 184t111.5 184t268.5 76
q178 0 308 -35t212 -105v340h-948v80h1346v-80h-218v-840q0 -33 42.5 -56.5t97.5 -23.5v-40h-460v40q56 0 98 23t42 57v164q-203 -164 -403.5 -254t-366.5 -90l-10 120q403 0 780 304v176zM518 800zM582 -268q-36 0 -62 26t-26 62t26 62t62 26t62 -26t26 -62t-26 -62
t-62 -26z" />
    <glyph glyph-name="uni092A093C094D0930" horiz-adv-x="1038" 
d="M710 960h-400v-500q0 -80 60 -140t140 -60q65 0 132.5 66.5t67.5 133.5v500zM60 0v120q270 0 398 70q-141 26 -234.5 110.5t-93.5 189.5v470h-136v80h1114v-80h-218v-840q0 -33 42.5 -56.5t97.5 -23.5v-40h-460v40q56 0 98 23t42 57v190q-123 -147 -294.5 -228.5
t-355.5 -81.5zM34 0zM412 -268q-36 0 -62 26t-26 62t26 62t62 26t62 -26t26 -62t-26 -62t-62 -26z" />
    <glyph glyph-name="uni092C093C094D0930" horiz-adv-x="1068" 
d="M650 230l-300 450q-70 -59 -70 -210q0 -122 78 -197t174 -75q65 0 118 32zM740 720q-78 54 -171 54q-82 0 -159 -44l298 -466l32 20v436zM20 20q188 0 420 102q-145 16 -242.5 117.5t-97.5 240.5q0 149 110.5 254.5t269.5 105.5q163 0 260 -80v200h-746v80h1144v-80h-218
v-840q0 -33 42.5 -56.5t97.5 -23.5v-40h-460v40q56 0 98 23t42 57v96q-201 -152 -385.5 -234t-324.5 -82zM42 0zM442 -268q-36 0 -62 26t-26 62t26 62t62 26t62 -26t26 -62t-26 -62t-62 -26z" />
    <glyph glyph-name="uni092D093C094D0930" horiz-adv-x="1182" 
d="M454 840q0 75 -32 127.5t-78 52.5t-78 -52.5t-32 -127.5q0 -65 32 -112.5t78 -47.5t78 47.5t32 112.5zM454 500h-60q-59 0 -99.5 -41.5t-40.5 -98.5q0 -53 29.5 -91.5t70.5 -38.5t70.5 34.5t29.5 85.5v150zM854 500h-220v-120q0 -97 -84.5 -158.5t-195.5 -61.5
q-109 0 -194.5 57t-85.5 147q0 82 75 139t185 57h120v120q-52 -60 -140 -60q-95 0 -162.5 64.5t-67.5 155.5q0 99 79.5 169.5t190.5 70.5q115 0 197.5 -75t82.5 -185v-260h220v400h-180v80h578v-80h-218v-840q0 -33 42.5 -56.5t97.5 -23.5v-40h-460v40q56 0 98 23t42 57v124
q-203 -164 -403.5 -254t-366.5 -90l-10 120q171 0 366 76.5t414 229.5v174zM572 -268q-36 0 -62 26t-26 62t26 62t62 26t62 -26t26 -62t-26 -62t-62 -26z" />
    <glyph glyph-name="uni092E093C094D0930" horiz-adv-x="1154" 
d="M1224 960h-218v-840q0 -33 42.5 -56.5t97.5 -23.5v-40h-460v40q56 0 98 23t42 57v164q-203 -164 -403.5 -254t-366.5 -90l-10 120q343 0 780 306v144h-260v-70q0 -103 -76.5 -171.5t-183.5 -68.5q-102 0 -181 53t-79 137t79.5 137t180.5 53h80v380h-392v80h1230v-80z
M826 580v380h-260v-380h260zM386 400v110h-50q-48 0 -79 -39t-31 -91q0 -48 23.5 -84t56.5 -36q34 0 57 40t23 100zM492 -268q-36 0 -62 26t-26 62t26 62t62 26t62 -26t26 -62t-26 -62t-62 -26z" />
    <glyph glyph-name="uni092F093C094D0930" horiz-adv-x="1140" 
d="M812 960h-360q83 -23 131.5 -69.5t48.5 -100.5q0 -87 -78.5 -148.5t-191.5 -61.5h-140q0 -164 98 -262t262 -98q112 0 230 92v648zM32 20q222 0 478 120q-209 0 -335.5 121.5t-126.5 354.5q0 20 4 64q85 -40 170 -40q90 0 155 47t65 113q0 55 -32.5 95t-97.5 65h-318v80
h1216v-80h-218v-840q0 -33 42.5 -56.5t97.5 -23.5v-40h-460v40q56 0 98 23t42 57v108q-197 -161 -397.5 -244.5t-382.5 -83.5v120zM532 -268q-36 0 -62 26t-26 62t26 62t62 26t62 -26t26 -62t-26 -62t-62 -26z" />
    <glyph glyph-name="uni0932093C094D0930" horiz-adv-x="1311" 
d="M985 721q-15 3 -30 3q-73 0 -131 -71t-58 -174h-49q0 94 -64 168t-157 74q-102 0 -176 -94.5t-74 -227.5q0 -135 74.5 -226t185.5 -91v-57q-205 0 -322.5 111t-117.5 284q0 169 108 284t262 115q103 0 186 -51t123 -137q29 69 89 109t151 51v170h-991v79h1391v-79h-220
v-840q0 -33 41.5 -56.5t100.5 -23.5v-41h-461v41q64 0 101.5 23.5t37.5 56.5v119q-213 -181 -379 -181l-10 121q193 0 389 139v402zM612 -268q-36 0 -62 26t-26 62t26 62t62 26t62 -26t26 -62t-26 -62t-62 -26z" />
    <glyph glyph-name="uni0934094D0930" horiz-adv-x="1318" 
d="M606 644q-66 116 -158 116q-82 0 -141 -106t-59 -254q0 -141 54 -245.5t126 -104.5q58 0 99 106t41 264q0 140 38 224zM688 166q70 -96 180 -96q82 0 141 96t59 234q0 153 -52.5 256.5t-127.5 103.5q-65 0 -102.5 -104.5t-37.5 -253.5q0 -151 -60 -236zM652 112
q-71 -112 -224 -112q-148 0 -254 124t-106 296q0 167 99.5 283.5t240.5 116.5q155 0 226 -124q56 94 174 124v140h-814v80h1394v-80h-400v-140q120 -43 190 -152t70 -248q0 -173 -100.5 -296.5t-269.5 -123.5q-142 0 -226 112zM902 830zM1032 -760h-130l-270 290l-270 -290
h-130l300 400h200zM632 -268q-36 0 -62 26t-26 62t26 62t62 26t62 -26t26 -62t-26 -62t-62 -26z" />
    <glyph glyph-name="uni0935093C094D0930" horiz-adv-x="1066" 
d="M738 280v420q-81 60 -190 60q-111 0 -190.5 -82.5t-79.5 -197.5q0 -113 68 -196.5t172 -83.5q50 0 84 8zM1058 40v-40h-460v40q56 0 98 23t42 57v88q-382 -288 -700 -288l-10 120q170 0 382 86q-135 24 -223.5 123t-88.5 231q0 149 110.5 254.5t269.5 105.5
q163 0 260 -80v200h-744v80h1142v-80h-218v-840q0 -33 42.5 -56.5t97.5 -23.5zM40 0zM432 -268q-36 0 -62 26t-26 62t26 62t62 26t62 -26t26 -62t-26 -62t-62 -26z" />
    <glyph glyph-name="uni0936093C094D0930" horiz-adv-x="1176" 
d="M1246 960h-218v-840q0 -33 42.5 -56.5t97.5 -23.5v-40h-460v40q56 0 98 23t42 57v300l-600 -380l-50 70l430 270l-280 150q-53 -27 -147.5 -48.5t-152.5 -21.5v76q162 3 240 44q-106 39 -173 116.5t-67 163.5q0 105 90 172.5t210 67.5t210 -67.5t90 -172.5
q0 -90 -57 -162.5t-171 -127.5l278 -150l150 90v450h-120v80h518v-80zM352 612q43 35 79.5 103t36.5 141q0 85 -34.5 142.5t-85.5 57.5q-50 0 -85 -60t-35 -140q0 -64 33 -130t91 -114zM129 182q-36 0 -62 26t-26 62t26 62t62 26t62 -26t26 -62t-26 -62t-62 -26z" />
    <glyph glyph-name="uni0937093C094D0930" horiz-adv-x="1068" 
d="M730 290l-450 620v-470q0 -100 70 -170t170 -70q131 0 210 90zM740 960h-410l410 -560v560zM508 122l-48 -2q-150 0 -255 93.5t-105 226.5v520h-106v80h1144v-80h-218v-840q0 -33 42.5 -56.5t97.5 -23.5v-40h-460v40q56 0 98 23t42 57v76q-396 -296 -700 -296v120
q248 0 468 102zM452 -268q-36 0 -62 26t-26 62t26 62t62 26t62 -26t26 -62t-26 -62t-62 -26z" />
    <glyph glyph-name="uni0938093C094D0930" horiz-adv-x="1492" 
d="M1562 960h-218v-840q0 -33 42.5 -56.5t97.5 -23.5v-40h-460v40q56 0 98 23t42 57v234q-208 -134 -460 -134l-10 120q259 0 470 106v94q-74 44 -204 44q-110 0 -206 -54q-26 -99 -131 -167.5t-279 -82.5q7 -1 134 -118q74 -68 128 -68t118 48l22 -46q-91 -100 -206 -100
q-124 0 -220 96q-154 154 -306 208l20 60q68 -40 150 -40q147 0 258.5 84.5t111.5 215.5q0 141 -110.5 240.5t-269.5 99.5h-180v80h1568v-80zM1164 590v370h-750q147 -39 239.5 -121.5t100.5 -178.5q60 22 116 22q180 0 294 -92zM109 -38q-36 0 -62 26t-26 62t26 62t62 26
t62 -26t26 -62t-26 -62t-62 -26z" />
    <glyph glyph-name="uni0939093C094D0930" horiz-adv-x="1006" 
d="M1074 960h-244v-230h-280q-69 0 -114.5 -23t-45.5 -57q0 -38 50 -80q56 10 110 10q185 0 292.5 -70.5t107.5 -189.5q0 -104 -83.5 -172t-196.5 -68q-103 0 -180 60v50q45 -30 110 -30q69 0 119.5 47.5t50.5 112.5h-244v60h234q-23 59 -84 99.5t-146 40.5
q-120 0 -210 -67.5t-90 -172.5q0 -123 117.5 -211.5t282.5 -88.5q219 0 320 80l-60 -140h-270q-285 0 -427.5 85t-142.5 255q0 94 72.5 168.5t183.5 107.5q-106 37 -106 124q0 58 61 99t149 41h240v160h-656v80h1080v-80zM497 -318q-36 0 -62 26t-26 62t26 62t62 26t62 -26
t26 -62t-26 -62t-62 -26z" />
    <glyph glyph-name="uni0918093C094DHalf" horiz-adv-x="758" 
d="M828 961h-343q-56 0 -102.5 -53.5t-46.5 -116.5q0 -68 38.5 -109t82.5 -41h59v-61h-59q-82 0 -141.5 -56t-59.5 -135t77 -133.5t183 -54.5q74 0 139 32t121 97v-70q-68 -80 -168 -120t-231 -40q-136 0 -229 77.5t-93 182.5q0 91 68.5 161.5t173.5 88.5v11
q-71 5 -116.5 52.5t-45.5 106.5q0 48 40.5 99t121.5 82h-303v79h834v-79zM956 120zM1104 0zM1096 40zM372 -268q-36 0 -62 26t-26 62t26 62t62 26t62 -26t26 -62t-26 -62t-62 -26z" />
    <glyph glyph-name="uni0919093C094DHalf" horiz-adv-x="1230" 
d="M1300 960h-364v-220h-320q-85 0 -142.5 -29t-57.5 -71q0 -41 60.5 -70.5t139.5 -29.5h120q117 0 198.5 -66.5t81.5 -163.5q0 -128 -130 -219t-310 -91q-215 0 -367.5 160t-172.5 390l60 10q18 -198 160 -334t330 -136q105 0 177.5 61.5t72.5 148.5q0 71 -46.5 120.5
t-113.5 49.5h-170q-111 0 -190.5 56t-79.5 134q0 66 78 113t192 47h250v140h-762v80h1306v-80zM1084 526q-36 0 -62 26t-26 62t26 62t62 26t62 -26t26 -62t-26 -62t-62 -26zM1130 0zM1196 -760h-200l-440 340l-60 -40h-120l120 100h200zM572 -268q-36 0 -62 26t-26 62t26 62
t62 26t62 -26t26 -62t-26 -62t-62 -26z" />
    <glyph glyph-name="uni091A093C094DHalf" horiz-adv-x="825" 
d="M864 219q-70 -70 -160 -104.5t-200 -34.5q-167 0 -283.5 100.5t-116.5 239.5q0 95 80 184t209 135h-368v62h759v-62h-159q-137 0 -229.5 -85t-92.5 -203q0 -117 87 -204t214 -87q70 0 141 35.5t119 95.5v-72zM895 961h-901v79h901v-79zM1044 120zM1192 0zM1184 40z
M422 -218q-36 0 -62 26t-26 62t26 62t62 26t62 -26t26 -62t-26 -62t-62 -26z" />
    <glyph glyph-name="uni091B093C094DHalf" horiz-adv-x="1222" 
d="M950 300q30 82 30 200q0 104 -29 172t-71 68t-71 -57.5t-29 -132.5q0 -103 50 -176.5t120 -73.5zM878 796q143 0 212.5 -82t69.5 -214q0 -214 -165.5 -357t-394.5 -143q-239 0 -384.5 76.5t-145.5 203.5q0 80 69 141t173 69l-2 10q-93 8 -156.5 60.5t-63.5 119.5
q0 81 72.5 140.5t177.5 59.5q92 0 160 -60l-30 -40q-52 30 -80 30q-49 0 -84.5 -38.5t-35.5 -91.5q0 -64 60 -112t140 -48v-40q-93 0 -156.5 -58.5t-63.5 -141.5q0 -105 99.5 -162.5t250.5 -57.5q118 0 213 55.5t127 144.5q-129 0 -224.5 80t-95.5 200q0 104 70.5 180
t187.5 76zM1292 960h-1298v80h1298v-80zM572 -268q-36 0 -62 26t-26 62t26 62t62 26t62 -26t26 -62t-26 -62t-62 -26z" />
    <glyph glyph-name="uni091D093C094DHalf" horiz-adv-x="860" 
d="M276 660q0 -63 48.5 -101.5t117.5 -38.5h150q42 0 86.5 -24t61.5 -56h140v-60h-114q10 -37 10 -80q0 -101 -104.5 -170.5t-255.5 -69.5q92 -90 190 -90q126 0 190 90l30 -40q-85 -150 -290 -150q-56 0 -130 38t-150 106q-174 156 -220 156v50h190q36 -59 140 -120
q85 0 147.5 59.5t62.5 140.5q0 59 -33.5 99.5t-86.5 40.5h-160q-91 0 -155.5 59.5t-64.5 140.5q0 82 81 141t199 59h160v120h-522v80h936v-80h-234v-200h-320q-43 0 -71.5 -29.5t-28.5 -70.5zM332 -368q-36 0 -62 26t-26 62t26 62t62 26t62 -26t26 -62t-26 -62t-62 -26z" />
    <glyph glyph-name="uni091E093C094DHalf" horiz-adv-x="602" 
d="M688 500h-162q-18 -109 -94.5 -174.5t-183.5 -65.5q-69 0 -125 30.5t-100 92.5l24 37q27 -30 58 -45t65 -15q79 0 128.5 51.5t49.5 129.5q0 80 -47.5 130t-126.5 50q-35 0 -67 -12t-60 -35l-18 41q45 52 101.5 78t123.5 26q114 0 185.5 -67.5t86.5 -192.5h162v-59z
M672 961h-678v79h678v-79zM496 40zM232 -118q-36 0 -62 26t-26 62t26 62t62 26t62 -26t26 -62t-26 -62t-62 -26z" />
    <glyph glyph-name="uni091F093C094DHalf" horiz-adv-x="976" 
d="M1046 960h-210v-280q-150 40 -260 40q-139 0 -239.5 -93t-100.5 -227q0 -131 111.5 -225.5t268.5 -94.5q151 0 310 130l30 -30q-72 -86 -178 -133t-222 -47q-199 0 -349.5 116t-150.5 294q0 159 137.5 269.5t332.5 110.5q74 0 130 -10v180h-662v80h1052v-80zM512 -268
q-36 0 -62 26t-26 62t26 62t62 26t62 -26t26 -62t-26 -62t-62 -26zM1102 -760h-200l-440 340l-60 -40h-120l120 100h200z" />
    <glyph glyph-name="uni0920093C094DHalf" horiz-adv-x="1118" 
d="M1188 960h-328v-200h-90q132 -49 211 -147.5t79 -212.5q0 -167 -135.5 -283.5t-324.5 -116.5h-80q-188 0 -324 118t-136 282q0 165 134.5 282.5t325.5 117.5h160v160h-686v80h1194v-80zM600 740h-80q-121 0 -200.5 -102.5t-79.5 -237.5t79.5 -237.5t200.5 -102.5h80
q121 0 200.5 102.5t79.5 237.5t-79.5 237.5t-200.5 102.5zM552 -268q-36 0 -62 26t-26 62t26 62t62 26t62 -26t26 -62t-26 -62t-62 -26zM1152 -760h-200l-440 340l-60 -40h-120l120 100h200z" />
    <glyph glyph-name="uni0921093C094DHalf" horiz-adv-x="1130" 
d="M1200 960h-264v-220h-340q-90 0 -135 -25t-45 -75t50 -75t150 -25h120q117 0 198.5 -66.5t81.5 -163.5q0 -128 -130 -219t-310 -91q-215 0 -367.5 160t-172.5 390l60 10q18 -198 160 -334t330 -136q106 0 178 60.5t72 149.5q0 72 -48.5 121t-123.5 49h-158
q-118 0 -194 52t-76 138q0 73 74.5 116.5t195.5 43.5h250v140h-762v80h1206v-80zM572 -268q-36 0 -62 26t-26 62t26 62t62 26t62 -26t26 -62t-26 -62t-62 -26zM1152 -760h-200l-440 340l-60 -40h-120l120 100h200z" />
    <glyph glyph-name="uni0922093C094DHalf" horiz-adv-x="1152" 
d="M1222 960h-284v-220h-280q-173 0 -296.5 -100.5t-123.5 -239.5q0 -137 86 -238.5t214 -101.5h80q-55 39 -87.5 110.5t-32.5 159.5q0 121 87.5 205.5t212.5 84.5t212.5 -87.5t87.5 -212.5q0 -134 -100.5 -227t-239.5 -93h-220q-196 0 -338 118t-142 282q0 167 145.5 283.5
t354.5 116.5h200v160h-764v80h1228v-80zM758 540q-75 0 -127.5 -68t-52.5 -162q0 -102 53.5 -176t126.5 -74q66 0 113 72t47 178q0 99 -46 164.5t-114 65.5zM602 -268q-36 0 -62 26t-26 62t26 62t62 26t62 -26t26 -62t-26 -62t-62 -26zM1206 -760h-200l-440 340l-60 -40
h-120l120 100h200z" />
    <glyph glyph-name="uni0923093C094DHalf" horiz-adv-x="831" 
d="M555 961h-279v-498q0 -93 40.5 -158t99.5 -65q56 0 97.5 60t41.5 163v498zM902 961h-167v-500q0 -124 -97.5 -202.5t-221.5 -78.5q-134 0 -227 82.5t-93 198.5v500h-102v79h908v-79zM816 40zM412 -88q-36 0 -62 26t-26 62t26 62t62 26t62 -26t26 -62t-26 -62t-62 -26z
" />
    <glyph glyph-name="uni0924093C094DHalf" horiz-adv-x="784" 
d="M815 657q-103 93 -270 93q-138 0 -219.5 -90t-81.5 -240q0 -70 39.5 -140.5t119.5 -140.5l-139 -139q-93 79 -147 186t-54 213q0 170 138.5 295t343.5 125q170 0 270 -74v-88zM854 961h-860v79h860v-79zM332 -268q-36 0 -62 26t-26 62t26 62t62 26t62 -26t26 -62t-26 -62
t-62 -26z" />
    <glyph glyph-name="uni0925093C094DHalf" horiz-adv-x="842" 
d="M563 760v80q0 80 -32.5 135t-86.5 55q-50 0 -85 -57.5t-35 -132.5q0 -56 35.5 -98t84.5 -42q52 0 119 60zM877 242q-63 -71 -154 -106.5t-209 -35.5q-194 0 -332.5 146.5t-138.5 353.5q113 -41 201 -41q102 0 177.5 31.5t102.5 79.5q-82 -31 -121 -31q-102 0 -181 59
t-79 142q0 97 87 168t214 71q124 0 211.5 -75.5t87.5 -184.5q0 -145 -123.5 -236.5t-279.5 -91.5q-47 0 -96 9q0 -120 104.5 -209.5t255.5 -89.5q157 0 273 108v-67zM1064 120zM1212 0zM332 -178q-36 0 -62 26t-26 62t26 62t62 26t62 -26t26 -62t-26 -62t-62 -26z" />
    <glyph glyph-name="uni0926093C094DHalf" horiz-adv-x="1044" 
d="M446 40q-161 0 -275.5 107.5t-114.5 256.5q0 151 140 258.5t340 107.5h160v190h-702v80h1120v-80h-238v-260h-340q-123 0 -211.5 -83t-88.5 -203q0 -117 88.5 -200.5t211.5 -83.5q64 0 126.5 25t123.5 75q10 56 10 70q0 153 -40 200h190q30 -55 30 -160
q0 -139 -69.5 -259t-190.5 -191l-30 30q63 76 90 240q-48 -57 -136 -88.5t-194 -31.5zM768 800zM422 -268q-36 0 -62 26t-26 62t26 62t62 26t62 -26t26 -62t-26 -62t-62 -26zM1002 -760h-200l-440 340l-60 -40h-120l120 100h200z" />
    <glyph glyph-name="uni0927093C094DHalf" horiz-adv-x="732" 
d="M772 230q-64 -77 -165 -113.5t-179 -36.5q-143 0 -246.5 82.5t-103.5 197.5q0 97 62 170.5t158 89.5v10q-90 16 -150 74t-60 126q0 97 81.5 163.5t198.5 66.5q99 0 164.5 -52t65.5 -128q0 -46 -31.5 -78t-78.5 -32q-45 0 -77.5 25.5t-32.5 64.5q0 37 29.5 63.5t70.5 26.5
q28 0 40 -10q0 27 -27.5 43.5t-62.5 16.5q-63 0 -106.5 -46.5t-43.5 -113.5q0 -72 54 -126t126 -54h60v-60h-60q-73 0 -126.5 -62.5t-53.5 -147.5t67.5 -147.5t156.5 -62.5q80 0 147.5 32.5t122.5 97.5v-80zM802 960h-150v80h150v-80zM808 961zM988 970zM1136 0zM412 -218
q-36 0 -62 26t-26 62t26 62t62 26t62 -26t26 -62t-26 -62t-62 -26z" />
    <glyph glyph-name="uni092A093C094DHalf" horiz-adv-x="636" 
d="M706 960h-430v-500q0 -80 60 -140t140 -60q73 0 129.5 53.5t70.5 136.5v-130q-34 -74 -106 -117t-154 -43q-133 0 -226.5 93.5t-93.5 226.5v480h-102v80h712v-80zM856 120zM1004 0zM392 -138q-36 0 -62 26t-26 62t26 62t62 26t62 -26t26 -62t-26 -62t-62 -26z" />
    <glyph glyph-name="uni092C093C094DHalf" horiz-adv-x="778" 
d="M848 960h-854v80h854v-80zM438 120q-156 0 -268 106t-112 254q0 149 110.5 254.5t269.5 105.5q160 0 270 -104t110 -256q0 -151 -111.5 -255.5t-268.5 -104.5zM398 740l260 -470q90 91 90 210q0 117 -73.5 197.5t-180.5 80.5q-60 0 -96 -18zM608 230l-270 480
q-100 -83 -100 -230q0 -115 73 -197.5t181 -82.5q61 0 116 30zM748 40zM437 -168q-36 0 -62 26t-26 62t26 62t62 26t62 -26t26 -62t-26 -62t-62 -26z" />
    <glyph glyph-name="uni092D093C094DHalf" horiz-adv-x="830" 
d="M460 840q0 75 -32 127.5t-78 52.5t-78 -52.5t-32 -127.5q0 -65 32 -112.5t78 -47.5t78 47.5t32 112.5zM460 500h-60q-63 0 -101.5 -54.5t-38.5 -137.5q0 -85 28 -141.5t72 -56.5q42 0 71 46t29 114v230zM870 498h-230v-158q0 -119 -82.5 -204.5t-197.5 -85.5t-197.5 79.5
t-82.5 190.5q0 103 76.5 171.5t183.5 68.5h120v120q-52 -60 -140 -60q-95 0 -162.5 64.5t-67.5 155.5q0 99 79.5 169.5t190.5 70.5q115 0 197.5 -75t82.5 -185v-260h230v-62zM900 960h-210v80h210v-80zM1040 120zM860 120zM1188 0zM341 -216q-36 0 -62 26t-26 62t26 62
t62 26t62 -26t26 -62t-26 -62t-62 -26z" />
    <glyph glyph-name="uni092E093C094DHalf" horiz-adv-x="806" 
d="M876 960h-290v-380h260v-70h-260v-150q0 -113 -84 -201.5t-196 -88.5q-111 0 -185.5 73.5t-74.5 182.5q0 117 82 185.5t218 68.5h60v380h-412v80h882v-80zM406 280v230h-70q-50 0 -80 -56t-30 -140q0 -92 20 -138t60 -46q43 0 71.5 45t28.5 105zM1026 120zM1174 0z
M281 -206q-36 0 -62 26t-26 62t26 62t62 26t62 -26t26 -62t-26 -62t-62 -26z" />
    <glyph glyph-name="uni092F093C094DHalf" horiz-adv-x="766" 
d="M836 961h-383q83 -25 131.5 -72.5t48.5 -97.5q0 -96 -83.5 -153.5t-205.5 -57.5h-123q0 -164 98.5 -262.5t255.5 -98.5q126 0 232 90v-69q-124 -101 -315 -101q-206 0 -325.5 130t-119.5 345q0 41 4 66q89 -41 170 -41q102 0 161.5 43t59.5 119q0 66 -55.5 113t-75.5 47
h-317v79h842v-79zM992 40zM812 120zM1140 0zM372 -168q-36 0 -62 26t-26 62t26 62t62 26t62 -26t26 -62t-26 -62t-62 -26z" />
    <glyph glyph-name="uni0932093C094DHalf" horiz-adv-x="944" 
d="M1014 961h-1020v79h1020v-79zM766 479h-49q0 94 -64 168t-157 74q-102 0 -176 -94.5t-74 -227.5q0 -140 77 -229.5t173 -89.5q74 0 120 41l29 -31q-59 -70 -209 -70q-155 0 -262.5 117.5t-107.5 282.5q0 169 108 284t262 115q103 0 186 -51t123 -137q29 69 89 109t151 51
v-70q-92 7 -155.5 -61.5t-63.5 -180.5zM1166 120zM1314 0zM392 -268q-36 0 -62 26t-26 62t26 62t62 26t62 -26t26 -62t-26 -62t-62 -26z" />
    <glyph glyph-name="uni0933093C094DHalf" horiz-adv-x="800" 
d="M100 700h600v-700h-600v700zM650 50v600h-500v-600h500z" />
    <glyph glyph-name="uni0935093C094DHalf" horiz-adv-x="778" 
d="M848 960h-854v80h854v-80zM438 120q-156 0 -268 106t-112 254q0 149 110.5 254.5t269.5 105.5q160 0 270 -104t110 -256q0 -151 -111.5 -255.5t-268.5 -104.5zM492 740q-108 0 -181 -76t-73 -184q0 -111 74.5 -190.5t179.5 -79.5t180.5 78.5t75.5 191.5
q0 109 -74.5 184.5t-181.5 75.5zM422 -168q-36 0 -62 26t-26 62t26 62t62 26t62 -26t26 -62t-26 -62t-62 -26z" />
    <glyph glyph-name="uni0936093C094DHalf" horiz-adv-x="956" 
d="M483 520q93 0 153 64t60 153q0 97 -58 160.5t-155 63.5q-89 0 -154 -63t-65 -159q0 -92 63.5 -155.5t155.5 -63.5zM684 555q-126 -104 -260 -104q-142 0 -246 85t-104 203q0 113 114 202t295 89q164 0 283 -130.5t119 -319.5q0 -182 -112.5 -311.5t-268.5 -129.5
q-70 0 -139 41q107 -136 171.5 -173.5t168.5 -37.5v-49h-121q-123 0 -198.5 35.5t-121.5 114.5q-49 84 -104 131.5t-117 58.5v39h260q80 -88 141 -88q109 0 174.5 96t65.5 248zM127 -98q-36 0 -62 26t-26 62t26 62t62 26t62 -26t26 -62t-26 -62t-62 -26z" />
    <glyph glyph-name="uni0937093C094DHalf" horiz-adv-x="700" 
d="M730 290l-450 620v-470q0 -100 70 -170t170 -70q131 0 210 90zM770 960h-440l410 -560v-160q-102 -120 -280 -120q-149 0 -254.5 94.5t-105.5 225.5v520h-106v80h776v-80zM920 40zM1068 0zM442 -158q-36 0 -62 26t-26 62t26 62t62 26t62 -26t26 -62t-26 -62t-62 -26z" />
    <glyph glyph-name="uni0938093C094DHalf" horiz-adv-x="963" 
d="M1001 510q-60 -10 -100 -10q-82 0 -158 35q-46 -110 -154 -165t-278 -55q116 -138 179 -176.5t122 -38.5q94 0 160 111l39 -31q-82 -180 -283 -180q-85 0 -159 35t-156 125q-141 163 -209 180l16 53q106 -33 185 -33q149 0 247.5 82.5t98.5 212.5q0 75 -36.5 143
t-112 115.5t-119.5 47.5h-289v79h1039v-79h-591q153 -32 236.5 -123t83.5 -226q60 -43 139 -43q42 0 100 21v-80zM1182 40zM1329 0zM113 -72q-36 0 -62 26t-26 62t26 62t62 26t62 -26t26 -62t-26 -62t-62 -26z" />
    <glyph glyph-name="uni0939093C094DHalf" horiz-adv-x="910" 
d="M980 960h-150v-200h-290q-65 0 -109.5 -31t-44.5 -77q0 -44 54 -82q56 10 110 10q141 0 238 -50t112 -130h-180q-8 49 -61 79.5t-129 30.5q-126 0 -213 -67t-87 -163q0 -132 118 -216t272 -84q229 0 330 80l-60 -140h-270q-282 0 -428 93.5t-146 252.5q0 95 74.5 169.5
t189.5 104.5q-110 40 -110 130q0 67 64.5 108.5t145.5 41.5h240v140h-656v80h986v-80zM522 -368q-36 0 -62 26t-26 62t26 62t62 26t62 -26t26 -62t-26 -62t-62 -26z" />
    <glyph glyph-name="uni0915094D0930094DHalf" horiz-adv-x="1157" 
d="M738 280v420q-81 60 -190 60q-111 0 -190.5 -82.5t-79.5 -197.5q0 -113 68 -196.5t172 -83.5q50 0 84 8zM917 631l1 -511q0 -33 42.5 -56.5t97.5 -23.5v-40h-460v40q56 0 98 23t42 57v88q-382 -288 -700 -288l-10 120q170 0 382 86q-135 24 -223.5 123t-88.5 231
q0 149 110.5 254.5t269.5 105.5q163 0 260 -80v200h-744v80h1233v-80h-309l-1 -249q98 80 260 80v-80q-192 0 -260 -80z" />
    <glyph glyph-name="uni0916094D0930094DHalf" horiz-adv-x="1504" 
d="M1574 960h-1122q135 -24 222.5 -116.5t87.5 -213.5q0 -136 -133 -233t-317 -97q79 -94 158.5 -147t141.5 -53q96 0 160 110l40 -30q-30 -83 -108 -131.5t-172 -48.5q-73 0 -148.5 32t-131.5 88q-96 96 -156 146t-84 54l18 48q102 -28 182 -28q133 0 226.5 93.5
t93.5 226.5q0 111 -73.5 195.5t-186.5 104.5h-278v80h1580v-80zM1504 208q-382 -288 -700 -288l-10 120q170 0 382 86q-135 24 -223.5 123t-88.5 231q0 152 110 256t270 104q162 0 260 -80v-60q-84 60 -190 60q-113 0 -191.5 -81.5t-78.5 -198.5q0 -113 68 -196.5t172 -83.5
q50 0 84 8l136 72v-72zM856 0z" />
    <glyph glyph-name="uni0917094D0930094DHalf" horiz-adv-x="936" 
d="M344 621q-53 0 -87 -57.5t-34 -123.5q0 -64 34 -122t87 -58q51 0 86 54t35 126t-34 126.5t-87 54.5zM1006 961h-582q153 -28 256.5 -130.5t103.5 -230.5q0 -166 -129 -282.5t-311 -116.5q-123 0 -212 71t-89 172q0 98 79 172t191 74q106 0 174 -75t68 -175h8
q41 47 41 160q0 101 -58 185.5t-150 130t-132 45.5h-270v79h1012v-79zM936 272q-431 -344 -770 -344l-10 119q341 0 780 307v-82zM842 0z" />
    <glyph glyph-name="uni0918094D0930094DHalf" horiz-adv-x="793" 
d="M863 961h-361q-56 0 -103 -51.5t-47 -118.5t36.5 -108.5t82.5 -41.5h61v-61h-61q-84 0 -141.5 -53.5t-57.5 -127.5q0 -84 75.5 -140t184.5 -56q142 0 261 127v-103q-426 -327 -750 -327l-8 120q164 0 381 86q-149 10 -246.5 84.5t-97.5 190.5q0 80 65 145t174 84v11
q-69 6 -114 53t-45 106q0 52 42 101.5t117 79.5h-317v79h869v-79zM973 121zM1120 0z" />
    <glyph glyph-name="uni0919094D0930094DHalf" horiz-adv-x="1230" 
d="M1300 960h-364v-220h-320q-85 0 -142.5 -29t-57.5 -71q0 -41 60.5 -70.5t139.5 -29.5h120q117 0 198.5 -66.5t81.5 -163.5q0 -128 -130 -219t-310 -91q-215 0 -367.5 160t-172.5 390l60 10q18 -198 160 -334t330 -136q105 0 177.5 61.5t72.5 148.5q0 71 -46.5 120.5
t-113.5 49.5h-170q-111 0 -190.5 56t-79.5 134q0 66 78 113t192 47h250v140h-762v80h1306v-80zM1084 526q-36 0 -62 26t-26 62t26 62t62 26t62 -26t26 -62t-26 -62t-62 -26zM1130 0zM1184 -787h-200l-440 340l-60 -40h-120l120 100h200zM984 -440h-130l-270 290l-270 -290
h-130l300 400h200z" />
    <glyph glyph-name="uni091A094D0930094DHalf" horiz-adv-x="866" 
d="M106 -100l-20 120q198 0 388 62q-151 10 -259.5 105t-108.5 233q0 100 81.5 186.5t208.5 133.5h-370v60h760v-60h-160q-133 0 -226.5 -84.5t-93.5 -205.5q0 -119 88.5 -204.5t209.5 -85.5q48 0 113.5 36t148.5 108v-84q-206 -160 -396 -240t-364 -80zM936 960h-942v80
h942v-80z" />
    <glyph glyph-name="uni091B094D0930094DHalf" horiz-adv-x="1222" 
d="M950 300q30 82 30 200q0 104 -29 172t-71 68t-71 -57.5t-29 -132.5q0 -103 50 -176.5t120 -73.5zM878 796q143 0 212.5 -82t69.5 -214q0 -214 -165.5 -357t-394.5 -143q-239 0 -384.5 76.5t-145.5 203.5q0 80 69 141t173 69l-2 10q-93 8 -156.5 60.5t-63.5 119.5
q0 81 72.5 140.5t177.5 59.5q92 0 160 -60l-30 -40q-52 30 -80 30q-49 0 -84.5 -38.5t-35.5 -91.5q0 -64 60 -112t140 -48v-40q-93 0 -156.5 -58.5t-63.5 -141.5q0 -105 99.5 -162.5t250.5 -57.5q118 0 213 55.5t127 144.5q-129 0 -224.5 80t-95.5 200q0 104 70.5 180
t187.5 76zM1292 960h-1298v80h1298v-80zM984 -440h-130l-270 290l-270 -290h-130l300 400h200z" />
    </font>
</defs>
</svg>
